<svg xmlns="http://www.w3.org/2000/svg">
<defs>
<font id="DBFongNamX" horiz-adv-x="0" >
  <font-face 
    font-family="DB FongNam X"
    font-weight="400"
    font-stretch="normal"
    units-per-em="4096"
    panose-1="2 0 5 6 6 0 0 2 0 4"
    ascent="3276"
    descent="-820"
    x-height="1122"
    cap-height="1516"
    bbox="-1544 -1597 4055 3023"
    underline-thickness="143"
    underline-position="-403"
    unicode-range="U+0020-F882"
  />
<missing-glyph horiz-adv-x="1696" 
d="M1729 1638v-57h24q29 0 29 37q0 3 -6.5 11.5t-22.5 8.5h-24zM1741 1577h-12v-57h-21v139h45q49 0 49 -41q0 -28 -12.5 -34.5t-28.5 -6.5l41 -57h-20zM1753 1499q26 0 43.5 8t28 20.5t14.5 27t4 26.5q0 46 -21.5 72t-68.5 26q-46 0 -70 -26t-24 -72q0 -34 22.5 -58
t71.5 -24zM1753 1692q53 0 77.5 -32.5t24.5 -78.5q0 -17 -6 -33.5t-18.5 -30t-32 -22t-45.5 -8.5q-24 0 -44 8.5t-33.5 22t-21 30t-7.5 33.5q0 46 28.5 78.5t77.5 32.5zM823 1294q43 -3 98 -9t114 -15t118.5 -20.5t112 -25.5t94 -30t65.5 -35q-41 81 -107 144.5t-146.5 107
t-171 66t-181.5 22.5q-69 0 -136 -13t-128.5 -40t-115 -68t-95.5 -96q74 9 147.5 12.5t147.5 3.5q46 0 92 -0.5t92 -3.5zM1536 1618v-582q-98 31 -211.5 58t-238.5 47t-259 31.5t-274 11.5q-99 0 -194 -6t-191 -19q24 92 78 175.5t135.5 146.5t189.5 100t240 37
q127 0 229.5 -28.5t179 -70.5t128 -89.5t77.5 -86.5q0 -3 -0.5 11t-0.5 38t-1 55t-1 62.5t-0.5 60t-0.5 48.5h115zM627 520q0 34 -22.5 50t-47.5 16q-28 0 -49 -16t-21 -50t21 -47.5t49 -13.5q12 0 24.5 3t22.5 10.5t16.5 19t6.5 28.5zM131 569q0 95 37.5 168t98.5 122
t139 74t159 25t157.5 -22t135 -67.5t94 -115.5t35.5 -167v-475h434v827h115v-934h-774v107h119v487q0 61 -24 107.5t-66 77t-99 46t-123 15.5q-61 0 -118.5 -17.5t-102 -50.5t-71.5 -81t-27 -109v-439l237 238q-11 4 -25.5 14.5t-28 27t-23 39.5t-9.5 54q0 74 45 117t119 43
q35 0 64 -13t49.5 -35t31.5 -51t11 -61q0 -29 -6.5 -51t-16.5 -38t-20.5 -27t-18.5 -19q-5 -5 -23.5 -22.5t-46.5 -44.5t-62.5 -60.5t-71.5 -69.5q-44 -40 -92 -85.5t-101 -98.5h-131v565z" />
    <glyph glyph-name="ellipsis" unicode="&#x2e;&#x2e;&#x2e;" horiz-adv-x="2048" 
d="M1630 0v258h152v-258h-152zM950 0v258h152v-258h-152zM266 0v258h152v-258h-152z" />
    <glyph glyph-name="dochadaphinthuthai" unicode="&#xe0e;&#xe3a;" horiz-adv-x="1499" 
d="M991 -516l-205 143l-86 -82q-20 -18 -37.5 -30t-34 -19t-34 -9.5t-37.5 -2.5q-70 0 -115.5 30.5t-68 76t-22 98.5t23.5 98.5t68.5 76t113.5 30.5q37 0 66 -12.5t45 -24.5l118 -103l152 144l70 -70l-148 -139l115 -86l213 209v1073q-8 81 -41.5 151t-88.5 121t-130 80
t-166 29q-152 0 -253.5 -57.5t-160.5 -172.5l160 -159v-517q0 -51 -16 -89.5t-43.5 -65.5t-65 -41.5t-80.5 -16.5q-71 0 -117.5 30.5t-69.5 76t-22 98.5t24.5 98.5t70 76t114.5 30.5q11 0 19.5 -0.5t17 -2t19.5 -4.5t26 -9v299l-176 176q146 360 553 360q121 0 221.5 -36.5
t172.5 -103t111.5 -159.5t39.5 -205v-1073zM303 250q33 0 54.5 15t32.5 37t11 48.5t-11 48.5t-32.5 37t-54.5 15q-34 0 -56.5 -15t-33.5 -37t-11 -48.5t11 -48.5t33.5 -37t56.5 -15zM618 -238q-18 16 -31.5 20.5t-29.5 4.5q-33 0 -54.5 -14.5t-32.5 -36.5t-11 -47.5
t11 -47.5t32.5 -36.5t54.5 -14.5q31 0 52 15.5t42 34.5l58 49zM1090 -700q0 -28 10 -52.5t27.5 -43t41.5 -29.5t52 -11q27 0 51.5 11t43 29.5t29.5 43t11 52.5q0 27 -11 51t-29.5 42t-43 28t-51.5 10q-28 0 -52 -10t-41.5 -28t-27.5 -42t-10 -51z" />
    <glyph glyph-name="topatakphintuthai" unicode="&#xe0f;&#xe3a;" horiz-adv-x="1499" 
d="M1126 -500l-180 140l-160 -140l-172 144l-98 -90q-28 -28 -64 -41t-67 -13q-70 0 -115.5 30.5t-67.5 76t-21 98.5t24 98.5t68.5 76t111.5 30.5q28 0 57.5 -6t57.5 -31l114 -102l152 143l70 -70l-148 -139l98 -78l160 140l168 -132l74 107v1143q-8 81 -41.5 151t-88.5 121
t-130 80t-166 29q-152 0 -253.5 -57.5t-160.5 -172.5l160 -159v-517q0 -51 -16 -89.5t-43.5 -65.5t-65 -41.5t-80.5 -16.5q-71 0 -117.5 30.5t-69.5 76t-22 98.5t24.5 98.5t70 76t114.5 30.5q19 0 43 -3.5t39 -12.5v299l-176 176q146 360 553 360q121 0 221.5 -36.5
t172.5 -103t111.5 -159.5t39.5 -205v-1138zM303 250q33 0 54.5 15t32.5 37t11 48.5t-11 48.5t-32.5 37t-54.5 15q-34 0 -56.5 -15t-33.5 -37t-11 -48.5t11 -48.5t33.5 -37t56.5 -15zM459 -229q-13 12 -29.5 22t-44.5 10q-33 0 -54.5 -14.5t-32.5 -36.5t-11 -47t11 -47
t32.5 -36.5t54.5 -14.5q14 0 23 1.5t16.5 5t14.5 8.5t16 13l82 70zM1090 -700q0 -28 10 -52.5t27.5 -43t41.5 -29.5t52 -11q27 0 51.5 11t43 29.5t29.5 43t11 52.5q0 27 -11 51t-29.5 42t-43 28t-51.5 10q-28 0 -52 -10t-41.5 -28t-27.5 -42t-10 -51z" />
    <glyph glyph-name="dochadasarauthai" unicode="&#xe0e;&#xe38;" horiz-adv-x="1499" 
d="M1188 -1319v381q-22 -15 -43.5 -20t-42.5 -5q-69 0 -114.5 30t-68.5 75t-23 98t23 98t68.5 75t114.5 30q48 0 86 -15t64.5 -42t40.5 -64t14 -80v-561h-119zM1102 -860q34 0 56.5 15t33.5 37t11 48.5t-11 48.5t-33.5 37t-56.5 15q-33 0 -54.5 -15t-32.5 -37t-11 -48.5
t11 -48.5t32.5 -37t54.5 -15zM991 -516l-205 143l-86 -82q-20 -18 -37.5 -30t-34 -19t-34 -9.5t-37.5 -2.5q-70 0 -115.5 30.5t-68 76t-22 98.5t23.5 98.5t68.5 76t113.5 30.5q37 0 66 -12.5t45 -24.5l118 -103l152 144l70 -70l-148 -139l115 -86l213 209v1073
q-8 81 -41.5 151t-88.5 121t-130 80t-166 29q-152 0 -253.5 -57.5t-160.5 -172.5l160 -159v-517q0 -51 -16 -89.5t-43.5 -65.5t-65 -41.5t-80.5 -16.5q-71 0 -117.5 30.5t-69.5 76t-22 98.5t24.5 98.5t70 76t114.5 30.5q11 0 19.5 -0.5t17 -2t19.5 -4.5t26 -9v299l-176 176
q146 360 553 360q121 0 221.5 -36.5t172.5 -103t111.5 -159.5t39.5 -205v-1073zM303 250q33 0 54.5 15t32.5 37t11 48.5t-11 48.5t-32.5 37t-54.5 15q-34 0 -56.5 -15t-33.5 -37t-11 -48.5t11 -48.5t33.5 -37t56.5 -15zM618 -238q-18 16 -31.5 20.5t-29.5 4.5
q-33 0 -54.5 -14.5t-32.5 -36.5t-11 -47.5t11 -47.5t32.5 -36.5t54.5 -14.5q31 0 52 15.5t42 34.5l58 49z" />
    <glyph glyph-name="topataksarauthai" unicode="&#xe0f;&#xe38;" horiz-adv-x="1499" 
d="M1188 -1319v381q-22 -15 -43.5 -20t-42.5 -5q-69 0 -114.5 30t-68.5 75t-23 98t23 98t68.5 75t114.5 30q48 0 86 -15t64.5 -42t40.5 -64t14 -80v-561h-119zM1102 -860q34 0 56.5 15t33.5 37t11 48.5t-11 48.5t-33.5 37t-56.5 15q-33 0 -54.5 -15t-32.5 -37t-11 -48.5
t11 -48.5t32.5 -37t54.5 -15zM1126 -500l-180 140l-160 -140l-172 144l-98 -90q-28 -28 -64 -41t-67 -13q-70 0 -115.5 30.5t-67.5 76t-21 98.5t24 98.5t68.5 76t111.5 30.5q28 0 57.5 -6t57.5 -31l114 -102l152 143l70 -70l-148 -139l98 -78l160 140l168 -132l74 107v1143
q-8 81 -41.5 151t-88.5 121t-130 80t-166 29q-152 0 -253.5 -57.5t-160.5 -172.5l160 -159v-517q0 -51 -16 -89.5t-43.5 -65.5t-65 -41.5t-80.5 -16.5q-71 0 -117.5 30.5t-69.5 76t-22 98.5t24.5 98.5t70 76t114.5 30.5q19 0 43 -3.5t39 -12.5v299l-176 176q146 360 553 360
q121 0 221.5 -36.5t172.5 -103t111.5 -159.5t39.5 -205v-1138zM303 250q33 0 54.5 15t32.5 37t11 48.5t-11 48.5t-32.5 37t-54.5 15q-34 0 -56.5 -15t-33.5 -37t-11 -48.5t11 -48.5t33.5 -37t56.5 -15zM459 -229q-13 12 -29.5 22t-44.5 10q-33 0 -54.5 -14.5t-32.5 -36.5
t-11 -47t11 -47t32.5 -36.5t54.5 -14.5q14 0 23 1.5t16.5 5t14.5 8.5t16 13l82 70z" />
    <glyph glyph-name="fongmanfunnuthai" unicode="&#xe4f;&#x22;" horiz-adv-x="1638" 
d="M881 1479v463h106v-463h-106zM651 1479v463h107v-463h-107zM1499 680q0 -94 -24 -181t-68.5 -162.5t-106.5 -137.5t-137.5 -106.5t-162.5 -68.5t-181 -24t-181 24t-162.5 68.5t-137.5 106.5t-106.5 137.5t-68.5 162.5t-24 181t24 181t68.5 162.5t106.5 137.5t137.5 106.5
t162.5 68.5t181 24t181 -24t162.5 -68.5t137.5 -106.5t106.5 -137.5t68.5 -162.5t24 -181zM1397 680q0 80 -20.5 153.5t-58 137.5t-90.5 117t-117 90.5t-138 58t-154 20.5t-153.5 -20.5t-137.5 -58t-117 -90.5t-90.5 -117t-58 -137.5t-20.5 -153.5t20.5 -154t58 -138
t90.5 -117t117 -90.5t137.5 -58t153.5 -20.5t154 20.5t138 58t117 90.5t90.5 117t58 138t20.5 154zM1229 680q0 -86 -31.5 -160t-87 -129t-130.5 -86t-161 -31t-160 31t-128.5 86t-85.5 129t-31 160t31 160.5t85.5 130t128.5 87.5t160 32t161 -32t130.5 -87.5t87 -130
t31.5 -160.5zM1126 680q0 63 -24.5 119t-66 97.5t-97.5 66t-119 24.5t-118 -24.5t-96.5 -66t-65 -97.5t-23.5 -119t23.5 -118t65 -96.5t96.5 -65t118 -23.5t119 23.5t97.5 65t66 96.5t24.5 118z" />
    <glyph glyph-name="lessequal" unicode="&#x3c;&#x3d;" horiz-adv-x="1241" 
d="M102 389v156l1041 -484v-147zM102 717v131l1041 475v-152l-848 -389l848 -393v-147z" />
    <glyph glyph-name="greaterequal" unicode="&#x3e;&#x3d;" horiz-adv-x="1241" 
d="M98 -86v147l1045 488v-160zM98 242v147l848 393l-848 389v152l1045 -475v-131z" />
    <glyph glyph-name="plusminus" unicode="&#x2b;&#x2d;" horiz-adv-x="1241" 
d="M700 852v-438h-155v438h-434v156h434v430h155v-430h435v-156h-435zM1135 176v-172h-1024v172h1024z" />
    <glyph glyph-name="dochadasarauuthai" unicode="&#xe0e;&#xe39;" horiz-adv-x="1499" 
d="M848 -1319v381q-22 -15 -43 -20t-43 -5q-69 0 -114.5 30t-68.5 75t-23 98t23 98t68.5 75t114.5 30q48 0 86 -15t64.5 -42t40.5 -64t14 -80v-450h221v651h119v-762h-459zM762 -860q34 0 56.5 15t33.5 37t11 48.5t-11 48.5t-33.5 37t-56.5 15q-33 0 -54.5 -15t-32.5 -37
t-11 -48.5t11 -48.5t32.5 -37t54.5 -15zM991 -516l-205 143l-86 -82q-20 -18 -37.5 -30t-34 -19t-34 -9.5t-37.5 -2.5q-70 0 -115.5 30.5t-68 76t-22 98.5t23.5 98.5t68.5 76t113.5 30.5q37 0 66 -12.5t45 -24.5l118 -103l152 144l70 -70l-148 -139l115 -86l213 209v1073
q-8 81 -41.5 151t-88.5 121t-130 80t-166 29q-152 0 -253.5 -57.5t-160.5 -172.5l160 -159v-517q0 -51 -16 -89.5t-43.5 -65.5t-65 -41.5t-80.5 -16.5q-71 0 -117.5 30.5t-69.5 76t-22 98.5t24.5 98.5t70 76t114.5 30.5q11 0 19.5 -0.5t17 -2t19.5 -4.5t26 -9v299l-176 176
q146 360 553 360q121 0 221.5 -36.5t172.5 -103t111.5 -159.5t39.5 -205v-1073zM303 250q33 0 54.5 15t32.5 37t11 48.5t-11 48.5t-32.5 37t-54.5 15q-34 0 -56.5 -15t-33.5 -37t-11 -48.5t11 -48.5t33.5 -37t56.5 -15zM618 -238q-18 16 -31.5 20.5t-29.5 4.5
q-33 0 -54.5 -14.5t-32.5 -36.5t-11 -47.5t11 -47.5t32.5 -36.5t54.5 -14.5q31 0 52 15.5t42 34.5l58 49z" />
    <glyph glyph-name="topataksarauuthai" unicode="&#xe0f;&#xe39;" horiz-adv-x="1499" 
d="M848 -1319v381q-22 -15 -43 -20t-43 -5q-69 0 -114.5 30t-68.5 75t-23 98t23 98t68.5 75t114.5 30q48 0 86 -15t64.5 -42t40.5 -64t14 -80v-450h221v651h119v-762h-459zM762 -860q34 0 56.5 15t33.5 37t11 48.5t-11 48.5t-33.5 37t-56.5 15q-33 0 -54.5 -15t-32.5 -37
t-11 -48.5t11 -48.5t32.5 -37t54.5 -15zM1126 -500l-180 140l-160 -140l-172 144l-98 -90q-28 -28 -64 -41t-67 -13q-70 0 -115.5 30.5t-67.5 76t-21 98.5t24 98.5t68.5 76t111.5 30.5q28 0 57.5 -6t57.5 -31l114 -102l152 143l70 -70l-148 -139l98 -78l160 140l168 -132
l74 107v1143q-8 81 -41.5 151t-88.5 121t-130 80t-166 29q-152 0 -253.5 -57.5t-160.5 -172.5l160 -159v-517q0 -51 -16 -89.5t-43.5 -65.5t-65 -41.5t-80.5 -16.5q-71 0 -117.5 30.5t-69.5 76t-22 98.5t24.5 98.5t70 76t114.5 30.5q19 0 43 -3.5t39 -12.5v299l-176 176
q146 360 553 360q121 0 221.5 -36.5t172.5 -103t111.5 -159.5t39.5 -205v-1138zM303 250q33 0 54.5 15t32.5 37t11 48.5t-11 48.5t-32.5 37t-54.5 15q-34 0 -56.5 -15t-33.5 -37t-11 -48.5t11 -48.5t33.5 -37t56.5 -15zM459 -229q-13 12 -29.5 22t-44.5 10
q-33 0 -54.5 -14.5t-32.5 -36.5t-11 -47t11 -47t32.5 -36.5t54.5 -14.5q14 0 23 1.5t16.5 5t14.5 8.5t16 13l82 70z" />
    <glyph glyph-name=".notdef" horiz-adv-x="1696" 
d="M1729 1638v-57h24q29 0 29 37q0 3 -6.5 11.5t-22.5 8.5h-24zM1741 1577h-12v-57h-21v139h45q49 0 49 -41q0 -28 -12.5 -34.5t-28.5 -6.5l41 -57h-20zM1753 1499q26 0 43.5 8t28 20.5t14.5 27t4 26.5q0 46 -21.5 72t-68.5 26q-46 0 -70 -26t-24 -72q0 -34 22.5 -58
t71.5 -24zM1753 1692q53 0 77.5 -32.5t24.5 -78.5q0 -17 -6 -33.5t-18.5 -30t-32 -22t-45.5 -8.5q-24 0 -44 8.5t-33.5 22t-21 30t-7.5 33.5q0 46 28.5 78.5t77.5 32.5zM823 1294q43 -3 98 -9t114 -15t118.5 -20.5t112 -25.5t94 -30t65.5 -35q-41 81 -107 144.5t-146.5 107
t-171 66t-181.5 22.5q-69 0 -136 -13t-128.5 -40t-115 -68t-95.5 -96q74 9 147.5 12.5t147.5 3.5q46 0 92 -0.5t92 -3.5zM1536 1618v-582q-98 31 -211.5 58t-238.5 47t-259 31.5t-274 11.5q-99 0 -194 -6t-191 -19q24 92 78 175.5t135.5 146.5t189.5 100t240 37
q127 0 229.5 -28.5t179 -70.5t128 -89.5t77.5 -86.5q0 -3 -0.5 11t-0.5 38t-1 55t-1 62.5t-0.5 60t-0.5 48.5h115zM627 520q0 34 -22.5 50t-47.5 16q-28 0 -49 -16t-21 -50t21 -47.5t49 -13.5q12 0 24.5 3t22.5 10.5t16.5 19t6.5 28.5zM131 569q0 95 37.5 168t98.5 122
t139 74t159 25t157.5 -22t135 -67.5t94 -115.5t35.5 -167v-475h434v827h115v-934h-774v107h119v487q0 61 -24 107.5t-66 77t-99 46t-123 15.5q-61 0 -118.5 -17.5t-102 -50.5t-71.5 -81t-27 -109v-439l237 238q-11 4 -25.5 14.5t-28 27t-23 39.5t-9.5 54q0 74 45 117t119 43
q35 0 64 -13t49.5 -35t31.5 -51t11 -61q0 -29 -6.5 -51t-16.5 -38t-20.5 -27t-18.5 -19q-5 -5 -23.5 -22.5t-46.5 -44.5t-62.5 -60.5t-71.5 -69.5q-44 -40 -92 -85.5t-101 -98.5h-131v565z" />
    <glyph glyph-name=".null" 
 />
    <glyph glyph-name="nonmarkingreturn" horiz-adv-x="1159" 
 />
    <glyph glyph-name="space" unicode=" " horiz-adv-x="1024" 
 />
    <glyph glyph-name="yoyingnobasethai" unicode="&#xf70f;" horiz-adv-x="1864" 
d="M877 0v119h81v794q0 72 -29 135t-80 109.5t-120.5 73t-150.5 26.5q-133 0 -221 -45.5t-140 -146.5l139 -156v-532q28 9 45 12.5t41 3.5q69 0 114.5 -30.5t68.5 -75.5t23 -98.5t-23 -98.5t-68.5 -75.5t-114.5 -30.5q-43 0 -80 15.5t-64.5 43.5t-43.5 67t-16 87v688
l-160 164q136 327 504 327q111 0 202 -33.5t156 -95t101 -147.5t36 -191v-790h479v1241h119v-1360h-798zM442 86q34 0 56.5 15t34 37t11.5 48.5t-11.5 48.5t-34 37t-56.5 15q-33 0 -54.5 -15t-32.5 -37t-11 -48.5t11 -48.5t32.5 -37t54.5 -15z" />
    <glyph glyph-name="quoteleft" unicode="&#x2018;" horiz-adv-x="721" 
d="M381 1118l-180 398h151l180 -398h-151z" />
    <glyph glyph-name="quoteright" unicode="&#x2019;" horiz-adv-x="721" 
d="M340 1118h-152l181 398h151z" />
    <glyph glyph-name="quotedblleft" unicode="&#x201c;" horiz-adv-x="1028" 
d="M680 1118l-180 398h151l180 -398h-151zM377 1118l-180 398h151l180 -398h-151z" />
    <glyph glyph-name="quotedblright" unicode="&#x201d;" horiz-adv-x="991" 
d="M627 1118h-152l180 398h152zM324 1118h-144l172 398h152z" />
    <glyph glyph-name="bullet" unicode="&#x2022;" horiz-adv-x="1241" 
d="M999 614q0 -77 -29.5 -145t-81 -119.5t-121 -81.5t-149.5 -30q-78 0 -146.5 29.5t-119.5 80.5t-80.5 119.5t-29.5 146.5q0 80 30 149.5t81.5 121t119.5 81t145 29.5q80 0 149.5 -29.5t121 -81t81 -121t29.5 -149.5z" />
    <glyph glyph-name="endash" unicode="&#x2013;" horiz-adv-x="2073" 
d="M53 573v111h1962v-111h-1962z" />
    <glyph glyph-name="emdash" unicode="&#x2014;" horiz-adv-x="4121" 
d="M53 573v111h4002v-111h-4002z" />
    <glyph glyph-name="uni00A0" unicode="&#xa0;" horiz-adv-x="1024" 
 />
    <glyph glyph-name="kokaithai" unicode="&#xe01;" horiz-adv-x="1368" 
d="M1053 0v885q0 81 -32.5 151t-90 121t-135.5 80t-168 29q-296 0 -414 -230l160 -159v-877h-119v840l-176 176q146 360 549 360q123 0 223 -36.5t171.5 -103t110.5 -159.5t39 -205v-872h-118z" />
    <glyph glyph-name="khokhaithai" unicode="&#xe02;" horiz-adv-x="1339" 
d="M475 0v111h160v925q0 45 -14 85t-41 70t-67.5 48t-94.5 18q-65 0 -114 -25.5t-83 -72.5q25 12 70 12q66 0 110.5 -29.5t66 -74.5t21.5 -96.5t-22.5 -96.5t-66.5 -74.5t-109 -29.5q-56 1 -96 22.5t-66 56t-38.5 79t-12.5 92.5q0 60 17 123t56.5 115t104.5 85t162 33
q78 0 140.5 -26t106 -71.5t66.5 -108t23 -134.5v-925h270v1253h123v-1364h-672zM291 877q30 0 49.5 13.5t29.5 34t10 44.5t-10 44.5t-29.5 34t-49.5 13.5q-31 0 -51.5 -13.5t-30.5 -34t-10 -44.5t10 -44.5t30.5 -34t51.5 -13.5z" />
    <glyph glyph-name="khokhuatthai" unicode="&#xe03;" horiz-adv-x="1331" 
d="M467 0v111h160v921l118 107q-27 46 -56.5 73.5t-70.5 36.5l-131 -86l-118 82q-40 -8 -70 -32t-50 -51t-30 -49.5t-10 -27.5q57 25 108.5 20.5t91.5 -30t63.5 -69t23.5 -97.5q0 -44 -13.5 -81.5t-37.5 -64.5t-58 -42.5t-76 -15.5q-55 0 -96 16.5t-69.5 46t-45 70
t-22.5 88.5q-6 75 12 145.5t56.5 129.5t95 103.5t127.5 67.5l118 -90l140 90q44 -14 85 -36t74.5 -52t59 -67.5t39.5 -81.5l-140 -136v-888h271v1249h119v-1360h-668zM299 807q33 0 54.5 14.5t32.5 36.5t11 47.5t-11 47.5t-32.5 36.5t-54.5 14.5t-54.5 -14.5t-32.5 -36.5
t-11 -47.5t11 -47.5t32.5 -36.5t54.5 -14.5z" />
    <glyph glyph-name="khokhwaithai" unicode="&#xe04;" horiz-adv-x="1446" 
d="M1135 0v831q0 45 -10 94t-30 96t-51 89t-74 74t-98 50.5t-122 18.5q-106 1 -186 -30.5t-133 -87t-80 -130.5t-27 -161v-553l229 598q12 35 30 65t42 52t55 34.5t70 12.5q65 0 109 -29.5t65.5 -73.5t21.5 -96t-22.5 -96t-67 -73.5t-111.5 -29.5q-23 0 -44 5.5t-38 13.5
t-30 17.5t-19 17.5l-290 -709h-119v840q0 112 35.5 209t104.5 169t171 113t234 41q120 -5 213.5 -48.5t158 -115.5t98 -167.5t33.5 -204.5v-836h-118zM750 754q33 0 54.5 15t32.5 37t11 48t-11 48t-32.5 37t-54.5 15q-34 0 -56.5 -15t-34 -37t-11.5 -48t11.5 -48t34 -37
t56.5 -15z" />
    <glyph glyph-name="khokhonthai" unicode="&#xe05;" horiz-adv-x="1470" 
d="M1155 0v840q0 87 -10 154.5t-34.5 116.5t-67.5 81t-109 49l-168 -127l-180 131q-66 -17 -114 -53.5t-79 -86.5t-46 -112t-15 -129v-581l209 589q12 36 27.5 65.5t38 50.5t54 32.5t76.5 11.5q49 0 86.5 -17.5t63 -46.5t38.5 -65.5t13 -75.5q0 -37 -12.5 -71.5t-37.5 -61.5
t-62.5 -43t-88.5 -16q-37 0 -72 13t-63 44l-270 -692h-119v856q0 94 23 179t69 153t115.5 116t161.5 68l184 -131l176 131q101 -28 165.5 -78.5t101.5 -119.5t51 -152.5t14 -177.5v-844h-119zM639 831q0 -43 27.5 -70.5t70.5 -27.5q44 0 73.5 27.5t29.5 70.5
q0 44 -29.5 73.5t-73.5 29.5q-43 0 -70.5 -29.5t-27.5 -73.5z" />
    <glyph glyph-name="khorakhangthai" unicode="&#xe06;" horiz-adv-x="1622" 
d="M336 197q0 44 16.5 83t45.5 68t67.5 45.5t83.5 16.5q18 0 38.5 -3.5t39.5 -13.5v639l118 107q-27 46 -56.5 73.5t-70.5 36.5l-131 -86l-118 82q-40 -8 -70 -32t-50 -51t-30 -49.5t-10 -27.5q57 25 108.5 20.5t91.5 -30t63.5 -69t23.5 -97.5q0 -44 -13.5 -81.5
t-37.5 -64.5t-58 -42.5t-76 -15.5q-55 0 -96 16.5t-69.5 46t-45 70t-22.5 88.5q-6 75 12 145.5t56.5 129.5t95 103.5t127.5 67.5l118 -90l140 90q44 -14 85 -36t74.5 -52t59 -67.5t39.5 -81.5l-140 -136v-643l562 -237v1241h118v-1360h-127l-540 229q3 -9 3.5 -16t0.5 -16
q0 -45 -16.5 -83.5t-45.5 -67.5t-67.5 -45.5t-83.5 -16.5t-83.5 16.5t-67.5 45.5t-45.5 67.5t-16.5 83.5zM442 193q0 -47 30 -77t77 -30q46 0 78 30t32 77q0 23 -8.5 43t-23.5 35t-35 23.5t-43 8.5q-47 0 -77 -32t-30 -78zM299 807q33 0 54.5 14.5t32.5 36.5t11 47.5
t-11 47.5t-32.5 36.5t-54.5 14.5t-54.5 -14.5t-32.5 -36.5t-11 -47.5t11 -47.5t32.5 -36.5t54.5 -14.5z" />
    <glyph glyph-name="ngonguthai" unicode="&#xe07;" horiz-adv-x="1073" 
d="M750 0l-672 745l106 62l574 -639v827q-6 -6 -17 -10.5t-23 -7.5t-23.5 -4.5t-18.5 -1.5q-67 0 -112.5 30t-69.5 75t-25.5 97.5t20.5 97.5t68.5 75t118.5 30q48 0 85 -15t63 -42t39.5 -63.5t13.5 -79.5v-1176h-127zM672 1077q33 0 54.5 14.5t32.5 36.5t11 47.5t-11 47.5
t-32.5 36.5t-54.5 14.5q-34 0 -56.5 -14.5t-33.5 -36.5t-11 -47.5t11 -47.5t33.5 -36.5t56.5 -14.5z" />
    <glyph glyph-name="chochanthai" unicode="&#xe08;" horiz-adv-x="1311" 
d="M979 0h-143l-123 651q-31 -18 -58 -27.5t-61 -9.5q-66 3 -109.5 34t-65 75t-22 95t21.5 94t65.5 71.5t109.5 28.5q45 0 79.5 -12.5t59.5 -35t40.5 -53t21.5 -67.5l102 -590l94 545q5 31 3.5 77.5t-15 98t-41 102.5t-73 91.5t-112.5 64t-159 20.5q-101 -5 -175 -43.5
t-122.5 -100t-72 -141t-23.5 -165.5h-123q6 121 40.5 224t99 178.5t159.5 119.5t221 47q98 0 177 -26t139.5 -70t102.5 -102.5t66 -123t30.5 -131.5t-3.5 -128zM594 713q34 0 56.5 14.5t33.5 36.5t11 47t-11 47t-33.5 36.5t-56.5 14.5q-33 0 -54.5 -14.5t-32.5 -36.5
t-11 -47t11 -47t32.5 -36.5t54.5 -14.5z" />
    <glyph glyph-name="chochingthai" unicode="&#xe09;" horiz-adv-x="1348" 
d="M1155 385q37 -11 64.5 -31t46 -45.5t28 -55.5t9.5 -60q0 -40 -13.5 -77.5t-40 -67t-64.5 -47t-87 -17.5t-87 18.5t-64 48.5t-39 69t-11 81l-332 -201h-131v451q-21 -10 -46.5 -13.5t-35.5 -3.5q-69 0 -114.5 30t-68.5 75t-23 98t23 98t69 75t114 30q42 0 79 -12t65 -37
t44.5 -63.5t16.5 -92.5v-524l479 278v451q0 87 -31 163.5t-86.5 132.5t-133 88.5t-171.5 32.5q-81 0 -149.5 -22t-121.5 -64t-89 -102t-53 -135h-123q18 100 62.5 181.5t113 139.5t159 89.5t201.5 31.5q124 0 224.5 -41.5t170.5 -114t108 -170.5t38 -210v-455zM1094 86
q33 0 54.5 15t32.5 37t11 48.5t-11 48.5t-32.5 37t-54.5 15t-54.5 -15t-32.5 -37t-11 -48.5t11 -48.5t32.5 -37t54.5 -15zM352 537q33 0 54.5 15t32.5 37t11 48t-11 48t-32.5 37t-54.5 15q-34 0 -56.5 -15t-33.5 -37t-11 -48t11 -48t33.5 -37t56.5 -15z" />
    <glyph glyph-name="chochangthai" unicode="&#xe0a;" horiz-adv-x="1339" 
d="M1032 1180q31 -20 52.5 -44.5t35.5 -56t20.5 -71t6.5 -90.5v-918h-672v111h160v925q0 45 -14 85t-41 70t-67.5 48t-94.5 18q-65 0 -115 -26t-78 -76q19 6 31.5 9t34.5 3q65 1 109 -28t65.5 -73t21.5 -96t-21.5 -96.5t-65.5 -74t-109 -29.5q-56 1 -96 22.5t-66 56
t-38.5 79t-12.5 92.5q0 60 17 123t56.5 115t104.5 85t162 33q78 0 140.5 -26t106 -71.5t66.5 -108t23 -134.5v-925h270v794q0 42 -5 81.5t-21.5 74.5t-48 63.5t-85.5 46.5l340 332l82 -78zM291 877q30 0 49.5 13.5t29.5 34t10 44.5t-10 44.5t-29.5 34t-49.5 13.5
q-31 0 -51.5 -13.5t-30.5 -34t-10 -44.5t10 -44.5t30.5 -34t51.5 -13.5z" />
    <glyph glyph-name="sosothai" unicode="&#xe0b;" horiz-adv-x="1356" 
d="M1036 1180q59 -78 91 -164t32 -189v-827h-696v111h160v753q0 26 8 51.5t20 47t25 37.5t24 24l164 152q-40 27 -82 46t-86 31l-155 -98l-152 90q-35 -11 -61.5 -29t-43.5 -36.5t-25.5 -33.5t-8.5 -20q68 8 115 -17.5t72.5 -68.5t28 -96t-17 -99t-62 -77t-107.5 -31
q-62 0 -101 22.5t-61 55.5t-30.5 70.5t-8.5 68.5q0 66 18.5 122.5t47.5 103t64.5 82.5t69.5 60.5t63 37t44 12.5l156 -98l151 98q78 -6 142.5 -35t119.5 -75l283 245l78 -82zM1040 815q0 42 -5 77.5t-16 68.5t-29 66.5t-44 70.5l-151 -140q-5 -2 -14 -11t-18 -24.5
t-15.5 -35.5t-6.5 -43v-733h299v704zM279 836q33 0 54.5 15t32.5 37t11 48t-11 48t-32.5 37t-54.5 15t-55 -15t-33 -37t-11 -48t11 -48t33 -37t55 -15z" />
    <glyph glyph-name="chochoethai" unicode="&#xe0c;" horiz-adv-x="1966" 
d="M799 172q0 40 14.5 75t40 61.5t59.5 41.5t74 15q32 0 66 -13v553q0 80 -32.5 146.5t-90 114t-135.5 74t-168 26.5q-296 0 -414 -230l160 -159v-500q15 6 33.5 11t52.5 5q69 -3 115.5 -33.5t69.5 -75t23.5 -96t-23 -96t-70 -75t-115.5 -33.5q-51 -2 -89 15.5t-64 46.5
t-39 66.5t-13 75.5v652l-176 176q146 360 549 360q123 0 223 -34t171.5 -97.5t110.5 -153.5t39 -202v-582l480 -188v1245h118v-1364h-118l-471 176v-4q0 -40 -15 -74t-41.5 -59.5t-61.5 -40t-75 -14.5t-74 14.5t-59.5 40t-40 59.5t-14.5 74zM459 86q33 0 54.5 15t32.5 37
t11 48.5t-11 48.5t-32.5 37t-54.5 15t-54.5 -15t-32.5 -37t-11 -48.5t11 -48.5t32.5 -37t54.5 -15zM901 176q0 -37 22.5 -59.5t59.5 -22.5t61.5 22.5t24.5 59.5t-24.5 61.5t-61.5 24.5t-59.5 -24.5t-22.5 -61.5z" />
    <glyph glyph-name="dochadathai" unicode="&#xe0e;" horiz-adv-x="1499" 
d="M991 -762l-205 144l-86 -82q-20 -19 -37.5 -31t-34 -19t-34 -9.5t-37.5 -2.5q-70 0 -115.5 30.5t-68 76t-22 98.5t23.5 98.5t68.5 76t113.5 30.5q37 0 66 -12.5t45 -24.5l118 -103l152 144l70 -70l-148 -139l115 -86l213 209v1319q0 82 -32.5 151.5t-89.5 120.5t-135 80
t-169 29q-152 0 -253.5 -57.5t-160.5 -172.5l160 -159v-680q0 -51 -16 -90t-43.5 -66t-65 -41.5t-80.5 -15.5q-71 0 -117.5 30.5t-69.5 75.5t-22 98.5t24.5 98.5t70 75.5t114.5 30.5q22 0 42.5 -3.5t39.5 -12.5v463l-176 176q146 360 553 360q121 0 221.5 -36.5t172.5 -103
t111.5 -159.5t39.5 -205v-1318zM303 86q33 0 54.5 15t32.5 37t11 48.5t-11 48.5t-32.5 37t-54.5 15q-34 0 -56.5 -15t-33.5 -37t-11 -48.5t11 -48.5t33.5 -37t56.5 -15zM618 -483q-18 15 -31.5 19.5t-29.5 4.5q-33 0 -54.5 -14.5t-32.5 -36.5t-11 -47t11 -47t32.5 -36.5
t54.5 -14.5q31 0 52 15t42 34l58 49z" />
    <glyph glyph-name="topatakthai" unicode="&#xe0f;" horiz-adv-x="1499" 
d="M1126 -762l-180 139l-160 -139l-172 144l-98 -91q-28 -27 -64 -40t-67 -13q-70 0 -115.5 30.5t-67.5 76t-21 98.5t24 98.5t68.5 76t111.5 30.5q28 0 61.5 -10.5t61.5 -34.5l106 -95l152 144l70 -70l-148 -139l98 -78l160 139l168 -131l74 107v1405q0 82 -32.5 151.5
t-89.5 120.5t-135 80t-169 29q-152 0 -253.5 -57.5t-160.5 -172.5l160 -159v-680q0 -51 -16 -90t-43.5 -66t-65 -41.5t-80.5 -15.5q-71 0 -117.5 30.5t-69.5 75.5t-22 98.5t24.5 98.5t70 75.5t114.5 30.5q19 0 39.5 -3.5t42.5 -12.5v463l-176 176q146 360 553 360
q121 0 221.5 -36.5t172.5 -103t111.5 -159.5t39.5 -205v-1400zM303 86q33 0 54.5 15t32.5 37t11 48.5t-11 48.5t-32.5 37t-54.5 15q-34 0 -56.5 -15t-33.5 -37t-11 -48.5t11 -48.5t33.5 -37t56.5 -15zM455 -487q-16 12 -30.5 20t-39.5 8q-33 0 -54.5 -14.5t-32.5 -36.5
t-11 -47t11 -47t32.5 -36.5t54.5 -14.5q22 0 37.5 6t28.5 18l86 74z" />
    <glyph glyph-name="thothanthai" unicode="&#xe10;" horiz-adv-x="1176" 
d="M958 954q-3 21 -12.5 52t-28 64t-46.5 66t-68 59t-93 42t-120 16q-86 0 -152 -27.5t-112.5 -71t-73.5 -96.5t-35 -104h467q54 0 95 -17t67.5 -45t37.5 -64t5 -74l-123 -754h-119l-135 365q-34 -28 -66.5 -37t-60.5 -9q-68 0 -112.5 29.5t-66.5 73.5t-22 96t22.5 96
t67.5 73.5t111 29.5q43 0 76 -14.5t57 -38.5t40.5 -56t27.5 -67l98 -308l86 504q7 42 -21 70.5t-77 28.5h-582q-6 127 30 224t99.5 164t148 104.5t175 45.5t180 -14.5t164 -75t127 -135t67.5 -195.5h-123zM717 -774l-111 78l-90 -78l-147 123l-74 -74q-28 -28 -57.5 -38.5
t-57.5 -10.5q-60 0 -100.5 27.5t-60.5 68t-20 88.5t20 88.5t60.5 68t100.5 27.5q59 0 103 -36l82 -78l61 57l70 -65l-62 -62l82 -65l90 77l99 -77l73 77v86q-12 -9 -33 -10.5t-36 -1.5q-61 3 -101 31.5t-60.5 69.5t-20.5 88t20.5 87t60.5 66.5t101 26.5q43 0 76.5 -14.5
t56.5 -39t35 -57t12 -69.5v-275zM385 418q33 0 54.5 14.5t32.5 36.5t11 47t-11 47t-32.5 36.5t-54.5 14.5t-54.5 -14.5t-32.5 -36.5t-11 -47t11 -47t32.5 -36.5t54.5 -14.5zM709 -410q29 0 49 13.5t29.5 33.5t9.5 43.5t-9.5 43.5t-29.5 33.5t-49 13.5q-31 0 -51.5 -13.5
t-30.5 -33.5t-10 -43.5t10 -43.5t30.5 -33.5t51.5 -13.5zM238 -524q-13 9 -26 16.5t-32 7.5q-30 0 -49.5 -13.5t-29.5 -33.5t-10 -43t10 -43t29.5 -33.5t49.5 -13.5q16 0 29 4.5t29 20.5l69 69z" />
    <glyph glyph-name="thonangmonthothai" unicode="&#xe11;" horiz-adv-x="1741" 
d="M1425 0v1114q0 31 -9 58t-27 47t-45 31.5t-62 11.5q-17 0 -37 -4.5t-39 -16t-36 -30.5t-27 -48l-389 -1163h-127v1032l118 107q-27 46 -56.5 73.5t-70.5 36.5l-131 -86l-118 82q-40 -8 -70 -32t-50 -51t-30 -49.5t-10 -27.5q57 25 108.5 20.5t91.5 -30t63.5 -69
t23.5 -97.5q0 -44 -13.5 -81.5t-37.5 -64.5t-58 -42.5t-76 -15.5q-55 0 -96 16.5t-69.5 46t-45 70t-22.5 88.5q-6 75 12 145.5t56.5 129.5t95 103.5t127.5 67.5l118 -90l140 90q44 -14 85 -36t74.5 -52t59 -67.5t39.5 -81.5l-140 -136v-688l279 856q25 77 60 119t71.5 62
t71.5 24t59 4q60 0 108 -18.5t81 -52.5t51 -82.5t18 -108.5v-1114h-119zM299 807q33 0 54.5 14.5t32.5 36.5t11 47.5t-11 47.5t-32.5 36.5t-54.5 14.5t-54.5 -14.5t-32.5 -36.5t-11 -47.5t11 -47.5t32.5 -36.5t54.5 -14.5z" />
    <glyph glyph-name="thophuthaothai" unicode="&#xe12;" horiz-adv-x="2032" 
d="M1253 197q0 -45 -16.5 -83.5t-45.5 -67.5t-67.5 -45.5t-83.5 -16.5q-44 0 -83 16.5t-68 45.5t-45.5 67.5t-16.5 83.5q0 44 16.5 83t45.5 68t68 45.5t83 16.5q19 0 39.5 -3.5t38.5 -13.5v484q0 63 -12 118.5t-38.5 103t-68.5 86.5t-102 68l-176 -118l-184 118
q-66 -37 -109 -76.5t-68 -85.5t-35 -98.5t-10 -115.5v-717l385 495q-46 1 -79.5 18.5t-56 44.5t-33.5 61t-11 69q0 38 12.5 75t37 66t61.5 46.5t86 17.5q51 0 89 -18t64 -47t39 -66.5t13 -77.5q0 -31 -9.5 -64.5t-27.5 -58.5l-557 -721h-131v877q0 87 19.5 165t60.5 142.5
t104.5 113.5t150.5 78l189 -114l192 114q88 -26 149.5 -75t100.5 -114.5t56.5 -144.5t17.5 -165v-541l479 -217v1241h119v-1360h-127l-455 209v-12zM934 193q0 -47 30 -77t76 -30q47 0 79 30t32 77q0 23 -8.5 43t-23.5 35t-35.5 23.5t-43.5 8.5t-42.5 -8.5t-33.5 -23.5
t-22 -35t-8 -43zM717 754q34 0 56.5 15t33.5 37t11 48t-11 48t-33.5 37t-56.5 15q-33 0 -54.5 -15t-32.5 -37t-11 -48t11 -48t32.5 -37t54.5 -15z" />
    <glyph glyph-name="nonenthai" unicode="&#xe13;" horiz-adv-x="1896" 
d="M1675 385q50 -13 83.5 -48t49 -79.5t12.5 -93t-26 -88.5t-67 -66t-109 -26q-59 0 -99 21.5t-64.5 53t-33.5 67t-4 62.5l-340 -188h-119v922q0 72 -29 133.5t-80 106t-120.5 70t-150.5 25.5q-133 0 -221 -45.5t-140 -146.5l139 -156v-532q22 9 42 12.5t44 3.5
q69 0 114.5 -30.5t68.5 -75.5t23 -98.5t-23 -98.5t-68.5 -75.5t-114.5 -30.5q-43 0 -80 15.5t-64.5 43.5t-43.5 67t-16 87v688l-160 164q136 327 504 327q111 0 202 -32.5t156 -92.5t101 -144.5t36 -188.5v-791l479 266v967h119v-975zM1618 86q33 0 54.5 15t32.5 37t11 48.5
t-11 48.5t-32.5 37t-54.5 15t-54.5 -15t-32.5 -37t-11 -48.5t11 -48.5t32.5 -37t54.5 -15zM442 86q34 0 56.5 15t34 37t11.5 48.5t-11.5 48.5t-34 37t-56.5 15q-33 0 -54.5 -15t-32.5 -37t-11 -48.5t11 -48.5t32.5 -37t54.5 -15z" />
    <glyph glyph-name="dodekthai" unicode="&#xe14;" horiz-adv-x="1430" 
d="M1114 0v823q0 88 -23.5 166t-73.5 136.5t-129.5 93t-191.5 34.5q-92 0 -163 -33.5t-119.5 -89.5t-73.5 -130.5t-25 -155.5v-688q109 145 199 270t170 233q-43 3 -76 21t-55 45.5t-33.5 61.5t-11.5 69q0 37 12 73t37 64.5t61.5 46t86.5 17.5q52 0 92 -18.5t67 -48
t40.5 -67t13.5 -75.5q0 -31 -9.5 -62.5t-27.5 -56.5l-549 -729h-135v844q0 106 33.5 201.5t98 168t158 115.5t213.5 43q138 0 239.5 -42.5t167.5 -117t98 -174.5t32 -215v-823h-123zM713 754q33 0 54.5 15t32.5 37t11 48t-11 48t-32.5 37t-54.5 15q-34 0 -56.5 -15
t-33.5 -37t-11 -48t11 -48t33.5 -37t56.5 -15z" />
    <glyph glyph-name="totaothai" unicode="&#xe15;" horiz-adv-x="1454" 
d="M1143 0v844q0 67 -0.5 125t-17 108t-57.5 92.5t-122 79.5l-201 -135l-208 135q-82 -37 -127 -79.5t-66 -92.5t-25 -108t-4 -125v-680l390 487q-43 5 -74.5 22.5t-52.5 43.5t-31 59t-10 68q0 38 12 75t36.5 66t61.5 46.5t86 17.5q54 0 94 -18t66.5 -47t39.5 -66.5
t13 -77.5q0 -34 -9.5 -66.5t-31.5 -60.5l-573 -713h-135v844q0 89 8.5 171t42.5 151.5t100.5 123.5t183.5 86l213 -135l218 135q75 -23 126 -54t84.5 -70t51.5 -85t26 -98t9.5 -108.5t1.5 -116.5v-844h-119zM737 745q33 0 54.5 15t32.5 37t11 48.5t-11 48.5t-32.5 37
t-54.5 15t-54.5 -15t-32.5 -37t-11 -48.5t11 -48.5t32.5 -37t54.5 -15z" />
    <glyph glyph-name="thothungthai" unicode="&#xe16;" horiz-adv-x="1368" 
d="M1053 0v877q0 81 -32.5 152t-90 123.5t-135.5 83t-168 30.5q-296 0 -414 -230l160 -159v-500q21 9 42.5 12.5t43.5 3.5q68 0 114 -30.5t68.5 -75.5t22.5 -98.5t-22.5 -98.5t-68.5 -75.5t-114 -30.5q-43 0 -80.5 13.5t-65 39.5t-43.5 64t-16 87v652l-176 176
q146 360 549 360q123 0 223 -38t171.5 -106t110.5 -162t39 -206v-864h-118zM459 86q33 0 54.5 15t32.5 37t11 48.5t-11 48.5t-32.5 37t-54.5 15t-54.5 -15t-32.5 -37t-11 -48.5t11 -48.5t32.5 -37t54.5 -15z" />
    <glyph glyph-name="thothahanthai" unicode="&#xe17;" horiz-adv-x="1475" 
d="M1163 0v1114q0 68 -34.5 110t-108.5 42q-21 0 -41.5 -4.5t-38.5 -16t-33.5 -31.5t-25.5 -51l-389 -1163h-127v987q-11 -6 -24 -9.5t-25.5 -5t-22.5 -1.5h-14q-69 0 -114.5 30t-68.5 75t-23 97.5t23 97.5t68.5 75t114.5 30q41 0 78 -12.5t65 -37t44.5 -62t16.5 -88.5v-865
l279 856q24 74 59 116t71.5 62.5t70.5 25.5t57 5q60 0 108.5 -18.5t82.5 -52.5t52.5 -82.5t18.5 -108.5v-1114h-119zM279 1073q33 0 54.5 15t32.5 37t11 48.5t-11 48.5t-32.5 37t-54.5 15t-55 -15t-33 -37t-11 -48.5t11 -48.5t33 -37t55 -15z" />
    <glyph glyph-name="thothongthai" unicode="&#xe18;" horiz-adv-x="1208" 
d="M995 975q-5 23 -15.5 53.5t-29.5 62.5t-47 62.5t-69 55t-95 39t-125 14.5q-106 0 -179.5 -35t-120.5 -88.5t-70 -117t-27 -120.5h709v-901h-729v111h122v680h-221q-6 144 31 251.5t102.5 179.5t152 110.5t179.5 45.5t185 -16.5t168 -75t129.5 -130t68.5 -181.5h-119z
M807 791h-369v-680h369v680z" />
    <glyph glyph-name="nonuthai" unicode="&#xe19;" horiz-adv-x="1466" 
d="M1245 410q57 -17 93 -54.5t51 -85t9 -98t-31.5 -92.5t-70.5 -69t-108 -27q-57 1 -99 23.5t-67 58.5t-33.5 82.5t2.5 97.5l-499 -246h-127v987q-11 -6 -24 -9.5t-25.5 -5t-22.5 -1.5h-14q-69 0 -114.5 30t-68.5 75t-23 97.5t23 97.5t68.5 75t114.5 30q41 0 78 -12.5
t65 -37t44.5 -62t16.5 -88.5v-1065l643 303v946h119v-950zM279 1073q33 0 54.5 15t32.5 37t11 48.5t-11 48.5t-32.5 37t-54.5 15t-55 -15t-33 -37t-11 -48.5t11 -48.5t33 -37t55 -15zM1188 86q36 0 59.5 16t35.5 40t12 52.5t-12 52.5t-35.5 40t-59.5 16t-60 -16t-36 -40
t-12 -52.5t12 -52.5t36 -40t60 -16z" />
    <glyph glyph-name="bobaimaithai" unicode="&#xe1a;" horiz-adv-x="1475" 
d="M205 0v111h160v876q-11 -6 -24 -9.5t-25.5 -5t-22.5 -1.5h-14q-69 0 -114.5 30t-68.5 75t-23 97.5t23 97.5t68.5 75t114.5 30q41 0 78 -12.5t65 -37t44.5 -62t16.5 -88.5v-1065h680v1249h119v-1360h-1077zM279 1073q33 0 54.5 15t32.5 37t11 48.5t-11 48.5t-32.5 37
t-54.5 15t-55 -15t-33 -37t-11 -48.5t11 -48.5t33 -37t55 -15z" />
    <glyph glyph-name="poplathai" unicode="&#xe1b;" horiz-adv-x="1475" 
d="M205 0v111h160v876q-11 -6 -24 -9.5t-25.5 -5t-22.5 -1.5h-14q-69 0 -114.5 30t-68.5 75t-23 97.5t23 97.5t68.5 75t114.5 30q41 0 78 -12.5t65 -37t44.5 -62t16.5 -88.5v-1065h680v1990h119v-2101h-1077zM279 1073q33 0 54.5 15t32.5 37t11 48.5t-11 48.5t-32.5 37
t-54.5 15t-55 -15t-33 -37t-11 -48.5t11 -48.5t33 -37t55 -15z" />
    <glyph glyph-name="phophungthai" unicode="&#xe1c;" horiz-adv-x="1397" 
d="M1077 0l-377 442l-376 -442h-127v1176q0 41 13.5 77.5t39.5 63.5t64 43t87 16q69 0 114.5 -30t68 -75t22 -97.5t-23 -97.5t-68 -75t-113.5 -30q-21 0 -41 4.5t-45 19.5v-835l385 442l385 -442v1200h119v-1360h-127zM401 1073q33 0 54.5 15t32.5 37t11 48.5t-11 48.5
t-32.5 37t-54.5 15q-34 0 -56.5 -15t-33.5 -37t-11 -48.5t11 -48.5t33.5 -37t56.5 -15z" />
    <glyph glyph-name="fofathai" unicode="&#xe1d;" horiz-adv-x="1397" 
d="M1077 0l-377 442l-376 -442h-127v1176q0 41 13.5 77.5t39.5 63.5t64 43t87 16q69 0 114.5 -30t68 -75t22 -97.5t-23 -97.5t-68 -75t-113.5 -30q-24 0 -42.5 4.5t-43.5 19.5v-835l385 442l385 -442v1941h119v-2101h-127zM401 1073q33 0 54.5 15t32.5 37t11 48.5t-11 48.5
t-32.5 37t-54.5 15q-34 0 -56.5 -15t-33.5 -37t-11 -48.5t11 -48.5t33.5 -37t56.5 -15z" />
    <glyph glyph-name="phophanthai" unicode="&#xe1e;" horiz-adv-x="1565" 
d="M1241 0l-377 1192l-372 -1192h-127v987q-11 -5 -24 -8t-25.5 -4.5t-22.5 -2.5t-14 -1q-69 0 -114.5 30t-68.5 75t-23 97.5t23 97.5t68.5 75t114.5 30q41 0 78 -12.5t65 -37t44.5 -62t16.5 -88.5v-865l336 1053h94l336 -1053v1049h119v-1360h-127zM279 1073q33 0 54.5 15
t32.5 37t11 48.5t-11 48.5t-32.5 37t-54.5 15t-55 -15t-33 -37t-11 -48.5t11 -48.5t33 -37t55 -15z" />
    <glyph glyph-name="fofanthai" unicode="&#xe1f;" horiz-adv-x="1565" 
d="M1241 0l-377 1192l-372 -1192h-127v987q-11 -6 -24 -9.5t-25.5 -5t-22.5 -1.5h-14q-69 0 -114.5 30t-68.5 75t-23 97.5t23 97.5t68.5 75t114.5 30q41 0 78 -12.5t65 -37t44.5 -62t16.5 -88.5v-865l336 1053h94l336 -1053v1790h119v-2101h-127zM279 1073q33 0 54.5 15
t32.5 37t11 48.5t-11 48.5t-32.5 37t-54.5 15t-55 -15t-33 -37t-11 -48.5t11 -48.5t33 -37t55 -15z" />
    <glyph glyph-name="phosamphaothai" unicode="&#xe20;" horiz-adv-x="1499" 
d="M1188 0v877q0 82 -32.5 153t-89.5 123.5t-135 82.5t-169 30q-152 0 -253.5 -57.5t-160.5 -172.5l160 -159v-680q0 -51 -16 -90.5t-43.5 -67t-65 -41.5t-80.5 -14q-69 0 -114.5 30.5t-68.5 75.5t-22.5 98.5t23 98.5t68.5 75.5t114 30.5q28 0 44 -3.5t38 -12.5v463
l-176 176q146 360 553 360q121 0 221.5 -38t172.5 -106t111.5 -162t39.5 -206v-864h-119zM303 86q33 0 54.5 15t32.5 37t11 48.5t-11 48.5t-32.5 37t-54.5 15q-34 0 -56.5 -15t-33.5 -37t-11 -48.5t11 -48.5t33.5 -37t56.5 -15z" />
    <glyph glyph-name="momathai" unicode="&#xe21;" horiz-adv-x="1491" 
d="M147 197q0 44 16.5 83t45.5 68t68 45.5t83 16.5q19 0 38 -3.5t40 -13.5v594q-21 -12 -47 -14t-39 -2q-68 0 -114 30t-69 75t-23 97.5t23 97.5t68.5 75t114.5 30q43 0 80.5 -13.5t65 -40t43.5 -65.5t16 -90v-802l619 -246v1241h122v-1360h-131l-598 242q3 -13 3.5 -24.5
t0.5 -20.5q0 -45 -16.5 -83.5t-45.5 -67.5t-67.5 -45.5t-83.5 -16.5q-48 0 -87 16.5t-67 45.5t-43.5 67.5t-15.5 83.5zM254 193q0 -47 30 -77t76 -30q47 0 79 30t32 77q0 23 -8.5 43t-23.5 35t-35.5 23.5t-43.5 8.5t-42.5 -8.5t-33.5 -23.5t-22 -35t-8 -43zM352 1073
q33 0 54.5 15t32.5 37t11 48.5t-11 48.5t-32.5 37t-54.5 15t-54.5 -15t-32.5 -37t-11 -48.5t11 -48.5t32.5 -37t54.5 -15z" />
    <glyph glyph-name="yoyakthai" unicode="&#xe22;" horiz-adv-x="1311" 
d="M197 0v446q0 36 4 74t14.5 72.5t29.5 62t50 41.5q-82 35 -127 99.5t-57 141t8 155t67 142.5t120.5 104t168.5 38q69 -1 114.5 -31.5t68 -75.5t22 -97t-23.5 -97t-68.5 -74.5t-112.5 -29.5q-45 0 -80.5 14t-61.5 38.5t-42 58t-21 73.5q-37 -65 -38 -133t27.5 -124t83 -92
t128.5 -36h193v-119h-234q-35 0 -57.5 -24t-35.5 -57t-17.5 -67.5t-4.5 -56.5v-335h680v1249h119v-1360h-917zM475 1073q33 0 54.5 15t32.5 37t11 48.5t-11 48.5t-32.5 37t-54.5 15q-34 0 -56.5 -15t-33.5 -37t-11 -48.5t11 -48.5t33.5 -37t56.5 -15z" />
    <glyph glyph-name="roruathai" unicode="&#xe23;" horiz-adv-x="1085" 
d="M872 958q-5 68 -34 123t-74.5 94t-103.5 60.5t-119 21.5q-72 0 -132 -22t-104.5 -61.5t-71 -94.5t-32.5 -121h516v-770q0 -41 -14 -78t-40.5 -65t-64.5 -44.5t-86 -16.5q-69 0 -114.5 30.5t-68.5 75.5t-22.5 98.5t23 98.5t68.5 75.5t114 30.5q25 0 49 -7.5t33 -16.5v471
h-516q-9 135 24.5 235t95 166.5t143.5 101t169 38t172 -22.5t152.5 -80t110.5 -134.5t46 -185.5h-119zM512 86q33 0 54.5 15t32.5 37t11 48.5t-11 48.5t-32.5 37t-54.5 15q-34 0 -56.5 -15t-33.5 -37t-11 -48.5t11 -48.5t33.5 -37t56.5 -15z" />
    <glyph glyph-name="ruthai" unicode="&#xe24;" horiz-adv-x="1368" 
d="M1053 -762v1647q0 81 -32.5 151t-90 121t-135.5 80t-168 29q-296 0 -414 -230l160 -159v-500q21 9 42.5 12.5t43.5 3.5q68 0 114 -30.5t68.5 -75.5t22.5 -98.5t-22.5 -98.5t-68.5 -75.5t-114 -30.5q-43 0 -80.5 13.5t-65 39.5t-43.5 64t-16 87v652l-176 176
q146 360 549 360q123 0 223 -36.5t171.5 -103t110.5 -159.5t39 -205v-1634h-118zM459 86q33 0 54.5 15t32.5 37t11 48.5t-11 48.5t-32.5 37t-54.5 15t-54.5 -15t-32.5 -37t-11 -48.5t11 -48.5t32.5 -37t54.5 -15z" />
    <glyph glyph-name="lolingthai" unicode="&#xe25;" horiz-adv-x="1352" 
d="M1036 0v352q0 105 -27.5 182t-79.5 127.5t-126 75.5t-168 25q-66 0 -121 -25t-94.5 -64t-61.5 -86t-22 -91v-119q22 9 44.5 12.5t41.5 3.5q68 0 114 -30.5t69 -75.5t22.5 -98.5t-23 -98.5t-68.5 -75.5t-114 -30.5q-49 0 -87 16.5t-64.5 44.5t-40 65t-13.5 78v291
q0 86 30.5 159t86 126t132.5 83t169 30q79 0 139 -12.5t105 -31.5t75 -41.5t48 -42.5t26 -35t8 -18v181q0 78 -32.5 147t-88 121t-130 82t-158.5 30q-98 0 -176.5 -33t-133 -89.5t-83.5 -132.5t-29 -162h-119q0 109 36.5 206t106.5 170.5t170 116.5t228 43q112 0 208.5 -39
t167.5 -106.5t111.5 -158.5t40.5 -195v-877h-119zM422 86q34 0 56.5 15t33.5 37t11 48.5t-11 48.5t-33.5 37t-56.5 15q-33 0 -54.5 -15t-32.5 -37t-11 -48.5t11 -48.5t32.5 -37t54.5 -15z" />
    <glyph glyph-name="luthai" unicode="&#xe26;" horiz-adv-x="1499" 
d="M1188 -762v1647q0 82 -32.5 151.5t-89.5 120.5t-135 80t-169 29q-152 0 -253.5 -57.5t-160.5 -172.5l160 -159v-680q0 -51 -16 -90.5t-43.5 -67t-65 -41.5t-80.5 -14q-69 0 -114.5 30.5t-68.5 75.5t-22.5 98.5t23 98.5t68.5 75.5t114 30.5q28 0 47.5 -5t34.5 -11v463
l-176 176q146 360 553 360q121 0 221.5 -36.5t172.5 -103t111.5 -159.5t39.5 -205v-1634h-119zM303 86q33 0 54.5 15t32.5 37t11 48.5t-11 48.5t-32.5 37t-54.5 15q-34 0 -56.5 -15t-33.5 -37t-11 -48.5t11 -48.5t33.5 -37t56.5 -15z" />
    <glyph glyph-name="wowaenthai" unicode="&#xe27;" horiz-adv-x="1155" 
d="M958 188q0 -41 -13.5 -78t-39.5 -65t-64 -44.5t-87 -16.5q-69 0 -114.5 30.5t-68.5 75.5t-23 98.5t23 98.5t68.5 75.5t114.5 30.5q24 0 45.5 -7.5t40.5 -16.5v569q0 67 -23 125.5t-65 101.5t-101 67.5t-131 24.5q-80 -2 -140.5 -29t-101 -71t-61 -102t-20.5 -121h-119
q0 92 30.5 172.5t87.5 140.5t139 94.5t185 34.5q105 -2 186.5 -35t137.5 -91.5t85 -138t29 -173.5v-750zM754 86q33 0 54.5 15t32.5 37t11 48.5t-11 48.5t-32.5 37t-54.5 15t-54.5 -15t-32.5 -37t-11 -48.5t11 -48.5t32.5 -37t54.5 -15z" />
    <glyph glyph-name="sosalathai" unicode="&#xe28;" horiz-adv-x="1446" 
d="M1298 1487q-3 -99 -35 -185.5t-87 -154.5q43 -71 58 -148.5t15 -154.5v-844h-123v840q0 68 -9 118t-32 95q-43 -41 -96 -69t-108 -34q14 -11 24.5 -39t12 -63t-7 -72.5t-31.5 -69t-62.5 -51.5t-99.5 -20q-47 0 -80.5 13t-54.5 44l-238 -692h-139v840q0 106 35 202
t101.5 169.5t162 117t217.5 43.5q107 0 198 -31.5t183 -107.5q43 56 60.5 124t17.5 130h118zM717 733q34 0 56.5 15t33.5 37t11 48.5t-11 48.5t-33.5 37t-56.5 15q-33 0 -54.5 -15t-32.5 -37t-11 -48.5t11 -48.5t32.5 -37t54.5 -15zM1020 1135q-34 31 -67 53t-69 36.5
t-77 21.5t-90 7q-92 0 -165 -32.5t-123.5 -88.5t-77.5 -131t-27 -161v-582l196 614q11 36 26.5 65.5t38.5 50.5t55 32.5t77 11.5q86 0 166.5 23.5t136.5 79.5z" />
    <glyph glyph-name="sorusithai" unicode="&#xe29;" horiz-adv-x="1495" 
d="M1561 840q-23 -46 -50 -85.5t-60.5 -74t-75 -65t-93.5 -58.5v-557h-1077v111h160v876q-11 -6 -24 -9.5t-25.5 -5t-22.5 -1.5h-14q-69 0 -114.5 30t-68.5 75t-23 97.5t23 97.5t68.5 75t114.5 30q41 0 78 -12.5t65 -37t44.5 -62t16.5 -88.5v-1065h680v401
q-60 -14 -110 -18.5t-90.5 -4t-72 5t-54.5 9.5q-77 13 -124 49t-67.5 82.5t-16 97t30 92.5t70.5 69.5t107 27.5q46 0 79 -12.5t55.5 -31.5t36.5 -41.5t21 -42.5t9.5 -35t2.5 -18q5 -38 0 -65.5t-12.5 -44.5t-14.5 -25t-5 -8q29 1 49.5 3t37 5t32.5 8t36 13v733h119v-680
q51 32 86 70.5t56.5 72.5t31.5 57t10 25zM836 614q34 0 56.5 15t33.5 37t11 48.5t-11 48.5t-33.5 37t-56.5 15q-33 0 -54.5 -15t-32.5 -37t-11 -48.5t11 -48.5t32.5 -37t54.5 -15zM279 1073q33 0 54.5 15t32.5 37t11 48.5t-11 48.5t-32.5 37t-54.5 15t-55 -15t-33 -37
t-11 -48.5t11 -48.5t33 -37t55 -15z" />
    <glyph glyph-name="sosuathai" unicode="&#xe2a;" horiz-adv-x="1352" 
d="M1036 0v336q0 94 -24 172t-73.5 135t-125 89t-178.5 34q-66 0 -121 -25.5t-94.5 -65t-61.5 -87.5t-22 -92v-119q28 12 47.5 14t38.5 2q68 0 114 -30.5t69 -75.5t22.5 -98.5t-23 -98.5t-68.5 -75.5t-114 -30.5q-49 0 -87 16.5t-64.5 44.5t-40 65t-13.5 78v291
q0 86 30.5 153t79.5 116t109.5 79.5t120.5 44.5q20 5 61 22t89 52t96 91t82 139q-59 43 -124.5 62t-133.5 19q-105 -5 -182 -38.5t-129 -89t-79.5 -129.5t-31.5 -160h-119q4 111 41 208.5t105 170t167 115t228 42.5q80 0 156.5 -18t138.5 -55q10 44 12 77t0.5 55.5t-5 36
t-3.5 19.5h118q13 -68 6 -140.5t-26 -133.5q68 -75 99.5 -163t31.5 -177v-877h-119zM1036 877q0 58 -16.5 111.5t-44.5 96.5q-18 -34 -38.5 -67.5t-43 -63.5t-48 -54.5t-54.5 -39.5q41 -11 79.5 -27t70.5 -38t56.5 -49.5t38.5 -61.5v193zM422 86q34 0 56.5 15t33.5 37
t11 48.5t-11 48.5t-33.5 37t-56.5 15q-33 0 -54.5 -15t-32.5 -37t-11 -48.5t11 -48.5t32.5 -37t54.5 -15z" />
    <glyph glyph-name="hohipthai" unicode="&#xe2b;" horiz-adv-x="1475" 
d="M1163 0v872q0 19 -10 33.5t-24.5 24.5t-31 15t-28.5 5q-28 1 -47.5 -2.5t-34 -11.5t-24 -21t-17.5 -30l-454 -885h-127v987q-9 -5 -22 -8t-26 -4.5t-23.5 -2.5t-14.5 -1q-67 0 -113 30t-69.5 75t-25 97.5t20.5 97.5t68.5 75t118.5 30q41 0 78 -12.5t65 -37t44.5 -62
t16.5 -88.5v-951l348 701q9 18 25.5 37.5t36.5 34.5t42.5 22.5t43.5 3.5q-29 15 -46.5 47t-22.5 71t4.5 80.5t34 75.5t65.5 56t100 22q60 0 102 -22.5t67 -58t32.5 -79t-0.5 -85t-30.5 -77.5t-59.5 -55q14 -5 24.5 -15.5t18 -24t11 -29t3.5 -29.5v-901h-119zM1114 1073
q34 0 56.5 15t33.5 37t11 48.5t-11 48.5t-33.5 37t-56.5 15q-33 0 -54.5 -15t-32.5 -37t-11 -48.5t11 -48.5t32.5 -37t54.5 -15zM279 1073q33 0 54.5 15t32.5 37t11 48.5t-11 48.5t-32.5 37t-54.5 15t-55 -15t-33 -37t-11 -48.5t11 -48.5t33 -37t55 -15z" />
    <glyph glyph-name="lochulathai" unicode="&#xe2c;" horiz-adv-x="1573" 
d="M1368 1352v-1352h-127l-377 975l-372 -975h-127v987q-11 -6 -24 -9.5t-25.5 -5t-22.5 -1.5h-14q-70 0 -116 30t-68.5 75t-22 97.5t24 97.5t69 75t113.5 30q41 0 78 -12.5t65 -37t44.5 -62t16.5 -88.5v-865l381 946l385 -946v932q-21 -9 -37.5 -13.5t-44.5 -4.5
q-69 0 -114.5 30t-68.5 75t-23 97.5t23 97.5t68.5 75t114.5 30q68 0 119 -36t70 -95l110 131l78 -74zM1167 1327q33 0 54.5 14.5t32.5 36.5t11 47.5t-11 47.5t-32.5 36.5t-54.5 14.5q-34 0 -56.5 -14.5t-33.5 -36.5t-11 -47.5t11 -47.5t33.5 -36.5t56.5 -14.5zM279 1073
q33 0 54.5 15t32.5 37t11 48.5t-11 48.5t-32.5 37t-54.5 15t-55 -15t-33 -37t-11 -48.5t11 -48.5t33 -37t55 -15z" />
    <glyph glyph-name="oangthai" unicode="&#xe2d;" horiz-adv-x="1307" 
d="M274 0v733q0 42 13.5 78t39.5 62.5t63 41.5t85 15q64 0 108.5 -29.5t67.5 -73.5t24 -96t-20.5 -96t-66 -73.5t-113.5 -29.5q-31 0 -50 7t-32 10v-438h602v745q0 81 -28 153.5t-80 126.5t-126.5 85.5t-166.5 31.5q-94 0 -169.5 -33t-127.5 -89.5t-78.5 -132.5t-21.5 -162
h-119q-5 104 27.5 201t98.5 171.5t164 119t226 44.5q123 0 219.5 -41.5t163.5 -112t102 -164t35 -198.5v-856h-840zM475 631q33 0 54.5 15t32.5 37t11 48t-11 48t-32.5 37t-54.5 15q-34 0 -56.5 -15t-33.5 -37t-11 -48t11 -48t33.5 -37t56.5 -15z" />
    <glyph glyph-name="honokhukthai" unicode="&#xe2e;" horiz-adv-x="1298" 
d="M1217 1487q-6 -49 -17.5 -98.5t-31 -96t-49.5 -90t-75 -80.5q12 -23 23 -48.5t18.5 -57t12 -70.5t4.5 -90v-856h-905v631q0 41 13.5 77t39 62.5t62.5 41.5t85 15q64 0 108.5 -29.5t67.5 -73.5t24 -95.5t-20.5 -95.5t-66 -73.5t-113.5 -29.5q-20 0 -33 2t-21.5 4.5t-15 5
t-12.5 4.5v-335h668v745q0 32 -1.5 57.5t-6 47.5t-11.5 42t-18 41q-35 -26 -82.5 -49t-100.5 -39.5t-108 -26t-106 -7.5q-35 1 -77 6t-84.5 16t-83 27.5t-71.5 41.5t-50 58t-19 76q0 44 20 78t52.5 59t74 41.5t84 27t83 15t71.5 4.5q118 0 230 -36.5t196 -110.5
q31 21 52 51.5t35.5 65.5t22.5 72.5t13 72.5h119zM885 1147q-34 29 -75 49.5t-85.5 33t-89.5 18t-86 5.5q-14 0 -39 -3t-54 -9t-59 -15t-54.5 -20.5t-40 -26.5t-15.5 -32q0 -18 16.5 -33t42.5 -27t57 -21.5t60 -16t52.5 -10t33.5 -3.5q108 -3 189.5 27.5t146.5 83.5z
M397 528q33 0 54.5 15t32.5 37t11 48.5t-11 48.5t-32.5 37t-54.5 15q-34 0 -56.5 -15t-33.5 -37t-11 -48.5t11 -48.5t33.5 -37t56.5 -15z" />
    <glyph glyph-name="paiyannoithai" unicode="&#xe2f;" horiz-adv-x="1253" 
d="M938 0v1118q-51 -65 -121.5 -103.5t-148 -56.5t-154 -18t-137.5 14q-71 16 -117 53.5t-68 84t-21 96t24.5 90.5t69.5 67.5t112 26.5q57 0 96 -20t62.5 -51.5t33.5 -70t9 -74.5t-11 -65t-26 -42q154 15 254 95t143 216h119v-1360h-119zM377 1069q33 0 54.5 14.5t32.5 36.5
t11 47.5t-11 47.5t-32.5 36.5t-54.5 14.5t-54.5 -14.5t-32.5 -36.5t-11 -47.5t11 -47.5t32.5 -36.5t54.5 -14.5z" />
    <glyph glyph-name="saraathai" unicode="&#xe30;" horiz-adv-x="1225" 
d="M1053 1348q-9 -71 -39.5 -133.5t-78 -114t-109.5 -90t-134 -60.5t-152 -26t-163 14q-71 15 -117 52t-68 83.5t-21 96.5t24.5 91.5t69.5 68t112 26.5q57 0 96 -20.5t62.5 -52t33.5 -69.5t9 -74t-11 -65.5t-26 -42.5q164 22 260 99t133 217h119zM377 1053q33 0 54.5 14.5
t32.5 36.5t11 47t-11 47t-32.5 36.5t-54.5 14.5t-54.5 -14.5t-32.5 -36.5t-11 -47t11 -47t32.5 -36.5t54.5 -14.5zM1053 438q-9 -71 -39.5 -133.5t-78 -113.5t-109.5 -89.5t-134 -60.5t-152 -26t-163 14q-71 15 -117 52t-68 83.5t-21 96t24.5 91t69.5 68t112 26.5
q57 0 96 -20t62.5 -51.5t33.5 -70t9 -74.5t-11 -65t-26 -42q164 22 260 99t133 216h119zM377 143q33 0 54.5 14.5t32.5 36.5t11 47.5t-11 47.5t-32.5 36.5t-54.5 14.5t-54.5 -14.5t-32.5 -36.5t-11 -47.5t11 -47.5t32.5 -36.5t54.5 -14.5z" />
    <glyph glyph-name="maihanakatthai" unicode="&#xe31;" 
d="M106 2081l107 -41q-37 -91 -93.5 -163t-127.5 -124t-153.5 -84.5t-170.5 -45.5t-179.5 -6t-180.5 34q-51 15 -87.5 40t-60 56t-34.5 65t-11 68q0 43 16 80.5t43.5 65t65 43.5t80.5 16t80.5 -16t65 -43.5t43.5 -65t16 -80.5t-15.5 -81.5t-46.5 -65.5q115 -11 216.5 4.5
t184 58.5t144 114t98.5 171zM-676 1978q-34 0 -56.5 -14.5t-34 -36.5t-12 -47t10 -47t31.5 -36.5t53 -14.5q33 0 55.5 13.5t34.5 34.5t13.5 45.5t-8.5 46.5t-31.5 37.5t-55.5 18.5z" />
    <glyph glyph-name="saraaathai" unicode="&#xe32;" horiz-adv-x="1135" 
d="M831 0v938q0 67 -22.5 125.5t-64.5 101.5t-101 67.5t-131 24.5q-80 -2 -140.5 -29t-101.5 -71t-61.5 -102t-20.5 -121h-118q0 92 30.5 172.5t87.5 140.5t139 94.5t185 34.5q105 -2 186.5 -35t137.5 -91.5t85 -138t29 -173.5v-938h-119z" />
    <glyph glyph-name="saraamthai" unicode="&#xe33;" horiz-adv-x="1135" 
d="M-254 1638q-69 0 -114.5 30t-68.5 75t-23 98t23 98t69 75t114 30t114 -30t68.5 -75t23 -98t-22.5 -98t-69 -75t-114 -30zM-254 1741q34 0 56.5 15t33.5 37t11 48.5t-11 48.5t-33.5 37t-56.5 15q-33 0 -54.5 -15t-32.5 -37t-11 -48.5t11 -48.5t32.5 -37t54.5 -15zM831 0
v938q0 67 -22.5 125.5t-64.5 101.5t-101 67.5t-131 24.5q-80 -2 -140.5 -29t-101.5 -71t-61.5 -102t-20.5 -121h-118q0 92 30.5 172.5t87.5 140.5t139 94.5t185 34.5q105 -2 186.5 -35t137.5 -91.5t85 -138t29 -173.5v-938h-119z" />
    <glyph glyph-name="saraithai" unicode="&#xe34;" 
d="M-197 1626q-89 32 -166.5 59t-148.5 48t-137.5 36.5t-132.5 24.5q-63 9 -116 15t-111 8t-128.5 1.5t-169.5 -3.5q26 75 73.5 143t116.5 120t158.5 82.5t200.5 30.5q118 -2 217 -42.5t171.5 -114t117 -177.5t55.5 -231zM-332 1769q-26 66 -61 121.5t-85.5 96.5t-119 66.5
t-160.5 31.5q-60 4 -116.5 -6.5t-104.5 -33.5t-86 -57t-61 -75q55 0 101 -1t89.5 -3t87 -6.5t94.5 -10.5q112 -15 219 -45.5t203 -77.5z" />
    <glyph glyph-name="saraiithai" unicode="&#xe35;" 
d="M-197 1618q-89 32 -166.5 59t-148.5 48t-137.5 36.5t-132.5 24.5q-137 18 -267.5 27t-257.5 -7q25 75 73.5 143.5t118.5 120.5t160 82.5t197 30.5q278 0 451 -233v344h110v-676zM-332 1761q-26 66 -61 121t-85.5 96.5t-119 67t-160.5 31.5q-60 4 -116.5 -6.5
t-104.5 -33.5t-86 -57t-61 -75q55 0 101 -1t89.5 -3t87 -6.5t94.5 -10.5q112 -15 219 -45.5t203 -77.5z" />
    <glyph glyph-name="sarauethai" unicode="&#xe36;" 
d="M-197 1618q-89 32 -166.5 59t-148.5 48t-137.5 36.5t-132.5 24.5q-137 18 -267.5 27t-257.5 -7q25 75 73.5 143.5t118.5 120.5t160 82.5t197 30.5q28 0 57 -3.5t66 -12.5q-3 12 -3 34.5t5.5 49t18.5 53.5t36 49.5t58.5 36.5t85.5 14q48 0 84.5 -15.5t62 -41t39 -59
t15.5 -68.5q3 -77 -31 -132t-92 -77q35 -37 67 -92q27 -48 53.5 -122t38.5 -179zM-434 2101q33 0 54.5 15t32.5 37t11 48.5t-11 48.5t-32.5 37t-54.5 15t-54.5 -15t-32.5 -37t-11 -48.5t11 -48.5t32.5 -37t54.5 -15zM-332 1761q-26 66 -61 121t-85.5 96.5t-119 67
t-160.5 31.5q-60 4 -116.5 -6.5t-104.5 -33.5t-86 -57t-61 -75q55 0 101 -1t89.5 -3t87 -6.5t94.5 -10.5q112 -15 219 -45.5t203 -77.5z" />
    <glyph glyph-name="saraueethai" unicode="&#xe37;" 
d="M-197 1618q-89 32 -166.5 59t-148.5 48t-137.5 36.5t-132.5 24.5q-137 18 -267.5 27t-257.5 -7q26 75 73.5 143.5t116.5 120.5t158.5 82.5t200.5 30.5q71 0 120 -11.5t77 -21.5v144h110v-205q25 -15 42.5 -28.5t32.5 -29t31 -35t38 -46.5v344h110v-676zM-332 1761
q-26 66 -61 121t-85.5 96.5t-119 67t-160.5 31.5q-60 4 -116.5 -6.5t-104.5 -33.5t-86 -57t-61 -75q55 0 101 -1t89.5 -3t87 -6.5t94.5 -10.5q112 -15 219 -45.5t203 -77.5z" />
    <glyph glyph-name="sarauthai" unicode="&#xe38;" 
d="M-315 -918v381q-22 -15 -43.5 -19.5t-42.5 -4.5q-69 0 -114.5 30t-68.5 75t-23 97.5t23 97.5t68.5 75t114.5 30q48 0 85.5 -15t64 -42t40.5 -63.5t14 -79.5v-562h-118zM-401 -459q34 0 56.5 15t33.5 37t11 48.5t-11 48.5t-33.5 37t-56.5 15q-33 0 -54.5 -15t-32.5 -37
t-11 -48.5t11 -48.5t32.5 -37t54.5 -15z" />
    <glyph glyph-name="sarauuthai" unicode="&#xe39;" 
d="M-655 -918v381q-22 -15 -43.5 -19.5t-42.5 -4.5q-69 0 -114.5 30t-68.5 75t-23 97.5t23 97.5t68.5 75t114.5 30q48 0 85.5 -15t64 -42t40.5 -63.5t14 -79.5v-451h222v651h118v-762h-458zM-741 -459q34 0 56.5 15t33.5 37t11 48.5t-11 48.5t-33.5 37t-56.5 15
q-33 0 -54.5 -15t-32.5 -37t-11 -48.5t11 -48.5t32.5 -37t54.5 -15z" />
    <glyph glyph-name="phinthuthai" unicode="&#xe3a;" 
d="M-410 -303q0 28 11 52t29.5 41.5t43 27.5t52.5 10q27 0 51 -10t42 -27.5t28 -41.5t10 -52t-10 -52.5t-28 -43t-42 -29t-51 -10.5q-28 0 -52.5 10.5t-43 29t-29.5 43t-11 52.5z" />
    <glyph glyph-name="PUCR2005" unicode="&#xe3e;" 
 />
    <glyph glyph-name="bahtthai" unicode="&#xe3f;" horiz-adv-x="1176" 
d="M1114 430q0 -97 -41 -179t-109.5 -140t-156 -88t-180.5 -23v-184h-131v184h-340v1516h340v167h131v-172q80 0 153 -32t129 -86t89.5 -126t33.5 -153q0 -96 -42 -170t-126 -133q121 -50 185.5 -149t64.5 -232zM881 1122q0 49 -21.5 94.5t-57 80.5t-81 55.5t-94.5 19.5
v-508q49 3 94.5 25.5t81 58t57 80.5t21.5 94zM496 1376h-189v-508h189v508zM963 426q0 70 -28 126.5t-74.5 95.5t-107 59.5t-126.5 17.5v-586q61 -4 121 16.5t108 59t77.5 92.5t29.5 119zM492 729h-185v-590h189z" />
    <glyph glyph-name="saraethai" unicode="&#xe40;" horiz-adv-x="696" 
d="M418 -16q-48 0 -86 15.5t-64.5 42.5t-40.5 64.5t-14 81.5v1172h119v-995q1 0 6 4.5t15 9.5t26 9.5t39 4.5q68 0 114 -30.5t69 -75.5t22.5 -98.5t-23 -98.5t-68.5 -75.5t-114 -30.5zM418 90q33 0 54.5 14.5t32.5 36.5t11 47.5t-11 47.5t-32.5 36.5t-54.5 14.5t-54.5 -14.5
t-32.5 -36.5t-11 -47.5t11 -47.5t32.5 -36.5t54.5 -14.5z" />
    <glyph glyph-name="saraaethai" unicode="&#xe41;" horiz-adv-x="1266" 
d="M979 -16q-48 0 -86 15.5t-64.5 42.5t-40.5 64.5t-14 81.5v1172h119v-995q1 0 6.5 4.5t15.5 9.5t25.5 9.5t38.5 4.5q68 0 114 -30.5t69 -75.5t22.5 -98.5t-23 -98.5t-68.5 -75.5t-114 -30.5zM418 -16q-48 0 -86 15.5t-64.5 42.5t-40.5 64.5t-14 81.5v1172h119v-995
q1 0 6 4.5t15 9.5t26 9.5t39 4.5q68 0 114 -30.5t69 -75.5t22.5 -98.5t-23 -98.5t-68.5 -75.5t-114 -30.5zM979 90q33 0 54.5 14.5t32.5 36.5t11 47.5t-11 47.5t-32.5 36.5t-54.5 14.5t-54.5 -14.5t-32.5 -36.5t-11 -47.5t11 -47.5t32.5 -36.5t54.5 -14.5zM418 90
q33 0 54.5 14.5t32.5 36.5t11 47.5t-11 47.5t-32.5 36.5t-54.5 14.5t-54.5 -14.5t-32.5 -36.5t-11 -47.5t11 -47.5t32.5 -36.5t54.5 -14.5z" />
    <glyph glyph-name="saraothai" unicode="&#xe42;" horiz-adv-x="815" 
d="M578 1839q0 55 -16 103.5t-49 84.5t-82.5 57t-115.5 21q-61 0 -108 -17.5t-80 -48.5t-52.5 -73.5t-25.5 -93.5l352 -168q16 -9 30.5 -24.5t14.5 -37.5v-1265q28 12 48 14t38 2q69 0 114.5 -30.5t68.5 -75.5t23 -98.5t-23 -98.5t-68.5 -75.5t-114.5 -30.5q-49 0 -87 16.5
t-64 45t-39.5 66.5t-13.5 81v1380q0 12 -1.5 20.5t-7 16t-16 14.5t-29.5 18l-344 173q-5 81 20 154.5t75 129t123.5 88.5t166.5 33q92 0 163 -30t119.5 -82t73.5 -121.5t25 -147.5h-118zM532 86q34 0 56.5 15t34 37t11.5 48.5t-11.5 48.5t-34 37t-56.5 15q-33 0 -54.5 -15
t-32.5 -37t-11 -48.5t11 -48.5t32.5 -37t54.5 -15z" />
    <glyph glyph-name="saraaimaimuanthai" unicode="&#xe43;" horiz-adv-x="946" 
d="M655 -16q-49 0 -86.5 16.5t-62.5 45t-38 66.5t-13 81v1699q0 43 -11.5 81t-35.5 66.5t-62 45t-92 16.5q-65 0 -116 -33.5t-72 -89.5q34 19 57 24t45 5q65 0 109 -29t66 -73t21.5 -94.5t-22 -94.5t-65.5 -73t-109 -29q-60 0 -104 25t-73.5 66.5t-44.5 93.5t-16 106
q0 60 22 116.5t63.5 100.5t101.5 71t137 27q74 0 133 -25t100.5 -68.5t63.5 -101.5t22 -124v-1524q28 12 46 14t36 2q70 0 116.5 -30.5t69.5 -75.5t23 -98.5t-23 -98.5t-69.5 -75.5t-116.5 -30.5zM168 1716q30 0 49.5 13.5t29.5 33.5t10 43t-10 43t-29.5 33.5t-49.5 13.5
q-31 0 -51.5 -13.5t-30.5 -33.5t-10 -43t10 -43t30.5 -33.5t51.5 -13.5zM655 86q34 0 56.5 15t34 37t11.5 48.5t-11.5 48.5t-34 37t-56.5 15q-33 0 -54.5 -15t-32.5 -37t-11 -48.5t11 -48.5t32.5 -37t54.5 -15z" />
    <glyph glyph-name="saraaimaimalaithai" unicode="&#xe44;" horiz-adv-x="946" 
d="M668 -16q-49 0 -87 16.5t-64.5 45t-40 66.5t-13.5 81v1773l-144 -360h-122l-267 598h123l205 -480l205 480h119v-1827q27 12 47 14t39 2q68 0 114 -30.5t69 -75.5t22.5 -98.5t-23 -98.5t-68.5 -75.5t-114 -30.5zM668 86q33 0 54.5 15t32.5 37t11 48.5t-11 48.5t-32.5 37
t-54.5 15q-34 0 -56.5 -15t-34 -37t-11.5 -48.5t11.5 -48.5t34 -37t56.5 -15z" />
    <glyph glyph-name="lakkhangyaothai" unicode="&#xe45;" horiz-adv-x="1135" 
d="M831 -762v1700q0 67 -22.5 125.5t-64.5 101.5t-101 67.5t-131 24.5q-80 -2 -140.5 -29t-101.5 -71t-61.5 -102t-20.5 -121h-118q0 92 30.5 172.5t87.5 140.5t139 94.5t185 34.5q105 -2 186.5 -35t137.5 -91.5t85 -138t29 -173.5v-1700h-119z" />
    <glyph glyph-name="maiyamokthai" unicode="&#xe46;" horiz-adv-x="1696" 
d="M1380 -758v1598q0 66 -10 126.5t-35 113t-66 95.5t-102 74l-180 -135l-180 135q-49 -17 -85 -44t-60.5 -62t-39 -76.5t-20.5 -87.5q31 15 56 26t59 11q68 0 114 -30t68.5 -75t22.5 -98t-22.5 -98t-68.5 -75t-114 -30q-71 0 -120.5 30t-79 80.5t-39.5 115t-2 133t33 136.5
t66.5 124t99 95.5t128.5 51.5l184 -135l193 135q92 -41 153.5 -96t98 -122.5t52 -147.5t15.5 -170v-1598h-119zM717 713q34 0 56.5 15t33.5 37t11 48t-11 48t-33.5 37t-56.5 15q-33 0 -54.5 -15t-32.5 -37t-11 -48t11 -48t32.5 -37t54.5 -15z" />
    <glyph glyph-name="maitaikhuthai" unicode="&#xe47;" 
d="M-143 2257q-10 -22 -24 -40t-30 -34q-27 -28 -76 -51t-120 -23h-430q-36 0 -69 -11t-59 -31.5t-41.5 -49t-15.5 -63.5q0 -38 8 -65t20 -45t26 -29t26.5 -16.5t21 -7t9.5 -1.5l131 180q14 -24 34.5 -57t45.5 -63t53.5 -51t59.5 -21q-5 40 3 75t28 61t51.5 41t72.5 15
q54 0 90.5 -24.5t55 -61.5t18.5 -80t-18.5 -80t-56 -61.5t-93.5 -24.5q-54 0 -104.5 9.5t-95 30t-81.5 52.5t-63 76l-111 -155q-41 0 -84.5 22.5t-79 63t-58.5 96t-23 121.5q0 60 24 110.5t65.5 86.5t95.5 56.5t114 20.5h430q23 0 45.5 3t43 13t37.5 27.5t29 46.5z
M-418 1724q29 0 48 12.5t28.5 31t9.5 40.5t-9.5 40.5t-28.5 31t-48 12.5q-30 0 -49 -12.5t-28.5 -31t-8.5 -40.5t11 -40.5t29 -31t46 -12.5z" />
    <glyph glyph-name="maiekthai" unicode="&#xe48;" 
d="M-307 2441v516h110v-516h-110z" />
    <glyph glyph-name="maithothai" unicode="&#xe49;" 
d="M90 2966q-24 -129 -87 -234t-153.5 -175.5t-204 -102.5t-239.5 -17v103q31 27 59 54t43 64q-12 -6 -25 -7t-20 -1q-61 0 -102 27.5t-61.5 68.5t-20.5 88.5t20.5 88.5t61.5 68.5t102 27.5q44 0 75.5 -13.5t52.5 -33.5t33 -43.5t18.5 -44t8 -35t1.5 -15.5q0 -38 -4.5 -81
t-15.5 -83t-30 -74.5t-48 -55.5q87 13 162 54t131 102t92 137.5t45 160.5zM-537 2744q30 0 49.5 13.5t29.5 33.5t10 43.5t-10 43.5t-29.5 33.5t-49.5 13.5t-49.5 -13.5t-29.5 -33.5t-10 -43.5t10 -43.5t29.5 -33.5t49.5 -13.5z" />
    <glyph glyph-name="maitrithai" unicode="&#xe4a;" 
d="M-184 2466h-111l98 200q22 45 25.5 87t-9 74.5t-40.5 52.5t-70 20q-23 0 -43.5 -10t-39.5 -24.5t-36 -31t-32 -28.5q-12 17 -30 32.5t-38.5 27.5t-42 19t-41.5 7q-42 0 -64.5 -22t-33 -49.5t-12 -53t-1.5 -31.5q0 -5 0.5 -14t2 -19.5t5 -21.5t9.5 -19q25 41 56.5 61.5
t74.5 20.5q50 0 82 -21t46.5 -52t13 -68t-18.5 -68t-48 -52t-75 -21q-56 0 -101.5 23.5t-78.5 62.5t-50.5 90t-15.5 106q0 48 12 92.5t36 79t61 55.5t88 23q52 0 92.5 -21.5t71.5 -52.5q37 31 72.5 52.5t78.5 21.5q42 0 73.5 -10t55.5 -28.5t40.5 -44t27.5 -56.5l86 168
l86 -41zM-561 2531q37 0 55 22.5t18 49.5t-18 49.5t-55 22.5q-35 0 -53 -22.5t-18 -49.5t18 -49.5t53 -22.5z" />
    <glyph glyph-name="maichattawathai" unicode="&#xe4b;" 
d="M-201 2654v-205h-110v205h-201v111h201v201h110v-201h205v-111h-205z" />
    <glyph glyph-name="thanthakhatthai" unicode="&#xe4c;" 
d="M-254 2736q27 -22 44 -55.5t22.5 -71t-2 -75.5t-28.5 -69t-57.5 -50t-89.5 -19q-44 0 -78.5 15.5t-58 42t-35.5 60.5t-12 71q0 117 115 172l540 254l54 -86zM-365 2490q30 0 49.5 13.5t29.5 33.5t10 43.5t-10 43.5t-29.5 33.5t-49.5 13.5t-49.5 -13.5t-29.5 -33.5
t-9.5 -43.5t10 -43.5t29.5 -33.5t49 -13.5z" />
    <glyph glyph-name="nikhahitthai" unicode="&#xe4d;" 
d="M-254 1638q-69 0 -114.5 30t-68.5 75t-23 98t23 98t69 75t114 30t114 -30t68.5 -75t23 -98t-22.5 -98t-69 -75t-114 -30zM-254 1741q34 0 56.5 15t33.5 37t11 48.5t-11 48.5t-33.5 37t-56.5 15q-33 0 -54.5 -15t-32.5 -37t-11 -48.5t11 -48.5t32.5 -37t54.5 -15z" />
    <glyph glyph-name="yamakkanthai" unicode="&#xe4e;" 
d="M-213 2413q-42 8 -71 -2.5t-45 -32t-18.5 -48.5t7.5 -52.5t33.5 -45t60.5 -24.5l-16 -94q-34 6 -63.5 -11.5t-49 -48t-27 -69t2 -73.5t40 -62t85.5 -35l-9 -95q-60 11 -104.5 36.5t-73 62.5t-40 83.5t-3.5 100.5q6 37 19 65.5t28 50.5t30 37.5t26 26.5q-31 36 -43.5 77
t-9 80.5t22.5 75t52 60t79 36t103 3.5z" />
    <glyph glyph-name="fongmanthai" unicode="&#xe4f;" horiz-adv-x="1638" 
d="M1499 680q0 -94 -24 -181t-68.5 -162.5t-106.5 -137.5t-137.5 -106.5t-162.5 -68.5t-181 -24t-181 24t-162.5 68.5t-137.5 106.5t-106.5 137.5t-68.5 162.5t-24 181t24 181t68.5 162.5t106.5 137.5t137.5 106.5t162.5 68.5t181 24t181 -24t162.5 -68.5t137.5 -106.5
t106.5 -137.5t68.5 -162.5t24 -181zM1397 680q0 80 -20.5 153.5t-58 137.5t-90.5 117t-117 90.5t-138 58t-154 20.5t-153.5 -20.5t-137.5 -58t-117 -90.5t-90.5 -117t-58 -137.5t-20.5 -153.5t20.5 -154t58 -138t90.5 -117t117 -90.5t137.5 -58t153.5 -20.5t154 20.5t138 58
t117 90.5t90.5 117t58 138t20.5 154zM1229 680q0 -86 -31.5 -160t-87 -129t-130.5 -86t-161 -31t-160 31t-128.5 86t-85.5 129t-31 160t31 160.5t85.5 130t128.5 87.5t160 32t161 -32t130.5 -87.5t87 -130t31.5 -160.5zM1126 680q0 63 -24.5 119t-66 97.5t-97.5 66
t-119 24.5t-118 -24.5t-96.5 -66t-65 -97.5t-23.5 -119t23.5 -118t65 -96.5t96.5 -65t118 -23.5t119 23.5t97.5 65t66 96.5t24.5 118z" />
    <glyph glyph-name="zerothai" unicode="&#xe50;" horiz-adv-x="1266" 
d="M618 -8q-129 0 -226 40t-161.5 106t-96.5 149.5t-32 171.5t32 171.5t96.5 149.5t161.5 106t226 40q138 0 241 -40t172 -106t103 -149.5t34 -171.5t-34 -171.5t-103 -149.5t-172 -106t-241 -40zM618 102q102 0 179 31t128 81t77 114.5t26 132t-25.5 132t-76.5 114.5
t-128 81t-180 31q-94 0 -164 -31t-117 -81t-71 -114.5t-24 -132t23.5 -132t70.5 -114.5t117.5 -81t164.5 -31z" />
    <glyph glyph-name="onethai" unicode="&#xe51;" horiz-adv-x="1352" 
d="M1257 406q5 -89 -17.5 -176t-69 -163.5t-116.5 -137t-161 -97.5l-49 102q67 26 121 71.5t92 105t58 129.5t20 145q0 91 -30 168t-88.5 133.5t-144 88.5t-196.5 32q-97 0 -176 -22.5t-137.5 -67.5t-94.5 -112.5t-47 -158.5q-5 -62 8 -115.5t37.5 -96t58 -73.5t69 -48.5
t70.5 -20.5t64 10q-52 31 -83 77t-31 108q0 41 13 79.5t39.5 68t66.5 47.5t94 18t93.5 -18t66 -48.5t38.5 -70.5t11 -84q-2 -54 -24.5 -107t-65 -94.5t-106.5 -67.5t-148 -26q-94 0 -168 37t-125 101t-76.5 149t-20.5 180q5 103 44.5 190t112.5 150.5t178.5 99t242.5 35.5
q140 -2 246 -42t178 -109.5t110 -164t43 -204.5zM627 176q37 0 61.5 16.5t36.5 41t12 53t-12 53t-36.5 41t-61.5 16.5t-61.5 -16.5t-37 -41t-12.5 -53t12.5 -53t37 -41t61.5 -16.5z" />
    <glyph glyph-name="twothai" unicode="&#xe52;" horiz-adv-x="1487" 
d="M1384 238q0 -50 -17 -93t-48.5 -75.5t-76 -51t-99.5 -18.5h-762q-54 0 -94.5 22t-67.5 57.5t-41 81t-14 93.5v1073h119v-1061q0 -41 11 -70.5t30 -48.5t45 -27.5t57 -8.5h709q58 0 94.5 36t36.5 95v405q0 32 -4.5 61t-19.5 51t-43.5 35t-76.5 13q-65 0 -115.5 -34.5
t-84.5 -84.5q-20 23 -42 44.5t-45 38t-48.5 26.5t-53.5 10q-43 0 -74 -11.5t-52 -29t-33.5 -37.5t-18.5 -37.5t-7 -29t1 -11.5q25 10 47.5 17.5t62.5 7.5q73 0 120 -31.5t69.5 -78t21 -101.5t-25.5 -101.5t-70.5 -78t-114.5 -31.5q-71 0 -117 30.5t-74 80t-39 110.5t-11 123
q4 66 26 125.5t60 104.5t90.5 71.5t118.5 26.5q68 0 123.5 -22.5t89.5 -72.5q40 50 97.5 72.5t119.5 22.5q61 -2 106.5 -22t75.5 -54.5t44.5 -81t14.5 -100.5v-430zM659 356q37 0 61.5 16.5t37 41t12.5 53.5t-12.5 53.5t-37 41t-61.5 16.5t-61.5 -16.5t-36.5 -41t-12 -53.5
t12 -53.5t36.5 -41t61.5 -16.5z" />
    <glyph glyph-name="threethai" unicode="&#xe53;" horiz-adv-x="1540" 
d="M1311 0v606q0 42 -12.5 79t-36 65.5t-57 45.5t-75.5 19q-47 4 -89.5 -9.5t-74.5 -41.5t-50.5 -68.5t-18.5 -89.5v-606h-119v606q0 43 -17.5 81t-49.5 66.5t-76 45t-98 16.5q-69 2 -124 -23.5t-95 -68.5t-64.5 -99.5t-32.5 -116.5t2 -119.5t39 -108.5q25 68 77 103.5
t120 35.5t115.5 -31t72.5 -78t27 -101.5t-21 -102.5t-71 -81t-123 -36q-92 9 -160 54.5t-112 114t-64.5 152.5t-16 170.5t33.5 168t83 145.5t133.5 102.5t184.5 38.5q89 0 168.5 -36t126.5 -107q55 71 131 109t159 38q63 0 118.5 -24t96.5 -68t65 -105t24 -135v-606h-119z
M459 94q37 0 61.5 16.5t36.5 41t12 53t-12 53t-36.5 41t-61.5 16.5t-61.5 -16.5t-37 -41t-12.5 -53t12.5 -53t37 -41t61.5 -16.5z" />
    <glyph glyph-name="fourthai" unicode="&#xe54;" horiz-adv-x="1548" 
d="M1556 991q-14 -29 -40.5 -60.5t-63.5 -57t-82 -42t-96 -16.5h-701q-30 0 -66 -4t-73 -17t-73 -37t-65.5 -63.5t-49.5 -97t-25 -137.5q-3 -46 9 -90t35 -82.5t54.5 -71t68 -55.5t76 -36t77.5 -13h180q-45 29 -74.5 75.5t-45 99t-18 104t6.5 89.5q10 48 30.5 88t50.5 69.5
t69 45t87 14.5q74 -3 122.5 -35.5t72.5 -80t23.5 -102t-25 -101t-73 -77t-120.5 -30.5q-31 0 -50 8t-32 17q0 -17 15.5 -48t43.5 -61t67 -52.5t87 -22.5h426v-111h-843q-81 0 -160 33t-141 94t-100 147.5t-38 192.5q1 106 35 191t95 144.5t145.5 91.5t187.5 32h709
q41 0 75 17.5t59 39.5t40 43t18 27zM827 373q37 0 61.5 16.5t37 41t12.5 53t-12.5 53t-37 41t-61.5 16.5t-61.5 -16.5t-36.5 -41t-12 -53t12 -53t36.5 -41t61.5 -16.5z" />
    <glyph glyph-name="fivethai" unicode="&#xe55;" horiz-adv-x="1573" 
d="M1581 991q-14 -29 -40.5 -60.5t-63 -57t-81 -42t-93.5 -16.5h-590q-95 0 -183.5 -27t-156.5 -74.5t-109.5 -112.5t-42.5 -142q-2 -85 22 -150t67 -109t102.5 -66.5t128.5 -22.5h188q-37 24 -65 71t-45 100.5t-23 106.5t2 90q11 48 31.5 88t50.5 69.5t69 45t87 14.5
q73 -3 121 -35t71.5 -78t22 -99.5t-26 -100t-72 -78.5t-116.5 -35q-25 0 -47.5 6.5t-34.5 18.5q0 -17 15.5 -48t43.5 -61t67 -52.5t87 -22.5h442v-111h-868q-92 0 -175 33t-144 94t-94.5 147.5t-25.5 192.5q6 86 38.5 157.5t85.5 126.5t123 92t151 54q-17 14 -29.5 36.5
t-20.5 47.5t-12 50.5t-4 45.5q1 51 19 94.5t49.5 75.5t75.5 50t98 18t96 -16.5t72 -46t47 -70t22 -88.5q2 -26 1 -48t-6.5 -42t-16 -39t-27.5 -39h434q42 0 76.5 17t60.5 38.5t41.5 42.5t18.5 29zM672 938q46 0 76.5 20.5t46 51.5t15.5 67.5t-15.5 67.5t-46 51.5t-76.5 20.5
t-77 -20.5t-46.5 -51.5t-15.5 -67.5t15.5 -67.5t46.5 -51.5t77 -20.5zM836 373q37 0 61.5 16.5t36.5 41t12 53t-12 53t-36.5 41t-61.5 16.5t-61.5 -16.5t-37 -41t-12.5 -53t12.5 -53t37 -41t61.5 -16.5z" />
    <glyph glyph-name="sixthai" unicode="&#xe56;" horiz-adv-x="1217" 
d="M1122 479q3 -34 -2.5 -83.5t-24.5 -104.5t-53.5 -110t-88 -98.5t-129.5 -71t-177 -27.5q-92 0 -180.5 18.5t-157.5 55.5t-111 93.5t-42 131.5q0 43 14 81.5t41 67.5t65.5 46.5t88.5 17.5q59 0 101 -22t67.5 -56.5t35.5 -77t6.5 -83.5t-19.5 -76t-44 -54q4 -5 20 -9t36 -8
t40.5 -6t34.5 -2q105 0 173.5 32.5t109 85t57 119.5t16.5 136q0 67 -24.5 127t-69.5 105t-109.5 71.5t-144.5 28.5q-200 6 -311 -148l-295 574l98 49l230 -438q71 46 137.5 64t140.5 18q105 1 188.5 -29.5t144 -89t95.5 -142t43 -186.5zM365 172q37 0 61.5 16.5t36.5 41
t12 53t-12 53t-36.5 41t-61.5 16.5t-61.5 -16.5t-37 -41t-12.5 -53t12.5 -53t37 -41t61.5 -16.5z" />
    <glyph glyph-name="seventhai" unicode="&#xe57;" horiz-adv-x="1548" 
d="M1135 0h-136l164 373q18 42 25 91t1.5 98t-23 94t-47 79.5t-71 54t-94.5 17.5q-38 0 -71 -12.5t-57 -36.5t-38 -60t-14 -84h-119q5 39 -8.5 74t-41 61.5t-67 42t-87.5 15.5q-57 0 -99.5 -24.5t-72 -66t-46 -97.5t-20.5 -119q-5 -55 0.5 -98.5t16 -77t24.5 -56.5t26 -37.5
t20 -20.5t7 -5q0 24 9 59.5t32.5 67.5t64 55t103.5 23q74 0 123 -31.5t73.5 -79t24.5 -102.5t-24.5 -102.5t-73.5 -79t-123 -31.5q-104 0 -187 45t-139.5 118.5t-84 168t-19.5 192.5q7 77 32 152t69.5 134t110.5 95.5t157 36.5q38 0 75.5 -9.5t71.5 -27.5t62.5 -43t48.5 -55
q46 61 110 98t135 37q65 0 114.5 -15t86.5 -39t62 -55t40.5 -64t22 -65t6.5 -57l234 520l94 -45zM516 86q37 0 61.5 16.5t37 41t12.5 53t-12.5 53t-37 41t-61.5 16.5t-61.5 -16.5t-36.5 -41t-12 -53t12 -53t36.5 -41t61.5 -16.5z" />
    <glyph glyph-name="eightthai" unicode="&#xe58;" horiz-adv-x="1597" 
d="M1614 1008q-12 -32 -42 -67.5t-72 -65t-92.5 -49t-104.5 -19.5h-754q-60 0 -117.5 -30.5t-102.5 -79.5t-72.5 -109.5t-27.5 -120.5q0 -115 60.5 -198t169.5 -117l151 294h127q17 -63 48 -117t73 -97.5t94.5 -74.5t112.5 -46q-21 20 -32 53.5t-11 72t12 77.5t38 70t67 51
t98 20q55 0 95 -18.5t66.5 -49t39 -69.5t12.5 -80q0 -17 -4 -42t-16 -53t-34 -56.5t-57.5 -51.5t-86.5 -37t-122 -14q-38 0 -95 14t-120 49t-127 95.5t-116 152.5l-144 -295q-111 23 -190.5 64t-131.5 100t-77.5 135t-26.5 168q0 94 35.5 177.5t96 146t140 99t167.5 36.5
h757q36 0 71.5 12t65.5 31.5t51.5 44.5t29.5 51zM1237 123q38 0 63.5 17t38 42.5t12.5 55t-12.5 55t-38 42.5t-63.5 17t-63.5 -17t-38 -42.5t-12.5 -55t12.5 -55t38 -42.5t63.5 -17z" />
    <glyph glyph-name="ninethai" unicode="&#xe59;" horiz-adv-x="1556" 
d="M1593 1024q0 -55 -19.5 -97t-50.5 -70.5t-69.5 -43t-77.5 -14.5h-180q-46 0 -82 -22.5t-57.5 -57t-26.5 -74.5t10 -76l287 -569h-135l-299 606q-23 46 -58.5 85t-79 66t-94 40.5t-104.5 9.5q-91 -5 -158.5 -43.5t-110.5 -96t-60 -128t-7 -140.5t47.5 -132t104.5 -103
q-3 49 9 95t38 81t65.5 56.5t92.5 21.5q48 0 87 -15t67.5 -42t44.5 -64t18 -80q4 -48 -11 -90t-45 -74t-71.5 -50.5t-89.5 -18.5q-117 0 -205.5 40.5t-148 106.5t-90 151t-31.5 173t28 173t88 151t148.5 106.5t210.5 40.5q114 0 205.5 -43.5t162.5 -120.5q11 26 34.5 53.5
t55.5 50.5t71 37.5t81 14.5h176q23 0 43 9.5t35 26t24 38.5t9 48v234h118v-250zM582 94q36 0 59.5 16t35.5 40t12 52.5t-12 52.5t-35.5 40t-59.5 16t-60 -16t-36 -40t-12 -52.5t12 -52.5t36 -40t60 -16z" />
    <glyph glyph-name="angkhankhuthai" unicode="&#xe5a;" horiz-adv-x="1622" 
d="M1307 0v1360h118v-1360h-118zM938 0v1118q-51 -65 -116.5 -103.5t-139 -56.5t-152 -18t-153.5 14q-72 13 -118 49.5t-68.5 83t-21 97t25.5 92.5t70 69t112 27q57 0 96 -20t62.5 -51.5t33.5 -70t9 -74.5t-11 -65t-26 -42q154 15 254 95t143 216h119v-1360h-119zM377 1069
q33 0 54.5 14.5t32.5 36.5t11 47.5t-11 47.5t-32.5 36.5t-54.5 14.5t-54.5 -14.5t-32.5 -36.5t-11 -47.5t11 -47.5t32.5 -36.5t54.5 -14.5z" />
    <glyph glyph-name="khomutthai" unicode="&#xe5b;" horiz-adv-x="3482" 
d="M2789 582l-159 159l-394 -393l-458 459l-553 -553q-84 -74 -186.5 -115t-223.5 -41q-85 0 -163.5 22t-147 62t-124 96t-95.5 124.5t-62 147t-22 163.5q0 123 48 233t132 192t196.5 127t241.5 38q43 -5 84.5 -23.5t75.5 -49t57 -73t29 -96.5q9 -50 -4 -89t-41 -79
q-29 -38 -68 -61t-82 -30t-85.5 2.5t-79.5 35.5t-59.5 65t-28.5 84t6.5 92t44.5 90q-74 -23 -137 -67t-109 -103.5t-72 -133t-26 -154.5q0 -105 38 -196t104 -158.5t155 -106.5t190 -39q96 0 179.5 34t148.5 93l639 639l458 -459l394 393l209 -208h507v-123h-557zM930 963
q14 18 18.5 40t0.5 44t-16 41.5t-32 33.5q-18 12 -41 16t-45.5 0.5t-43 -15t-34.5 -29.5q-12 -19 -16 -41t0 -44t15.5 -41.5t29.5 -33.5q20 -12 43 -16t45 -0.5t42 15t34 30.5z" />
    <glyph glyph-name="saraulowthai" unicode="&#xf718;" 
d="M-315 -1597v380q-28 -15 -48 -19.5t-38 -4.5q-69 0 -114.5 30t-68.5 75t-23 97.5t23 97.5t68.5 75t114.5 30q48 0 85.5 -15t64 -42t40.5 -63.5t14 -79.5v-561h-118zM-401 -1139q34 0 56.5 15t33.5 37t11 48.5t-11 48.5t-33.5 37t-56.5 15q-33 0 -54.5 -15t-32.5 -37
t-11 -48.5t11 -48.5t32.5 -37t54.5 -15z" />
    <glyph glyph-name="sarauulowthai" unicode="&#xf719;" 
d="M-655 -1597v380q-22 -15 -43.5 -19.5t-42.5 -4.5q-69 0 -114.5 30t-68.5 75t-23 97.5t23 97.5t68.5 75t114.5 30q48 0 85.5 -15t64 -42t40.5 -63.5t14 -79.5v-451h222v651h118v-761h-458zM-741 -1139q34 0 56.5 15t33.5 37t11 48.5t-11 48.5t-33.5 37t-56.5 15
q-33 0 -54.5 -15t-32.5 -37t-11 -48.5t11 -48.5t32.5 -37t54.5 -15z" />
    <glyph glyph-name="phinthulowthai" unicode="&#xf71a;" 
d="M-340 -1061q-44 0 -73.5 19.5t-44 49.5t-14.5 64t14.5 64t44 49.5t73.5 19.5t73.5 -19.5t44 -49.5t14.5 -64t-14.5 -64t-44 -49.5t-73.5 -19.5z" />
    <glyph glyph-name="rulakkhangyao" unicode="&#xf881;" horiz-adv-x="2126" 
d="M1810 -762v1700q0 67 -23 125.5t-64.5 101.5t-100.5 67.5t-131 24.5q-91 -2 -152 -35t-98.5 -86.5t-53.5 -122.5t-16 -141v-1634h-118v1647q0 87 -35.5 157.5t-94.5 120t-136 76.5t-160 27q-296 0 -414 -230l160 -159v-500q21 9 42.5 12.5t43.5 3.5q68 0 114 -30.5
t68.5 -75.5t22.5 -98.5t-22.5 -98.5t-68.5 -75.5t-114 -30.5q-43 0 -80.5 13.5t-65 39.5t-43.5 64t-16 87v652l-176 176q146 360 549 360q161 0 280.5 -60.5t190.5 -168.5q26 51 64.5 93t88.5 72t110.5 47t129.5 17q104 -2 185.5 -35t137.5 -91.5t85.5 -138t29.5 -173.5
v-1700h-119zM459 86q33 0 54.5 15t32.5 37t11 48.5t-11 48.5t-32.5 37t-54.5 15t-54.5 -15t-32.5 -37t-11 -48.5t11 -48.5t32.5 -37t54.5 -15z" />
    <glyph glyph-name="lulakkhangyao" unicode="&#xf882;" horiz-adv-x="2236" 
d="M1925 -762v1700q0 67 -23 125.5t-64.5 101.5t-100.5 67.5t-131 24.5q-91 -2 -152 -35t-98.5 -86.5t-53.5 -122.5t-16 -141v-1634h-119v1647q-8 81 -41 151t-88.5 121t-130.5 80t-166 29q-151 0 -252.5 -57.5t-160.5 -172.5l159 -159v-680q0 -51 -16 -90.5t-43.5 -67
t-64.5 -41.5t-80 -14q-69 0 -114.5 30.5t-68.5 75.5t-23 98.5t23 98.5t68.5 75.5t114.5 30.5q27 0 43.5 -3.5t38.5 -12.5v463l-177 176q148 360 553 360q158 0 279 -61t192 -172q25 54 62.5 97t87 73t111 46.5t133.5 16.5q104 -2 185.5 -35t137.5 -91.5t85.5 -138
t29.5 -173.5v-1700h-119zM283 86q33 0 54.5 15t32.5 37t11 48.5t-11 48.5t-32.5 37t-54.5 15q-34 0 -56.5 -15t-34 -37t-11.5 -48.5t11.5 -48.5t34 -37t56.5 -15z" />
    <glyph glyph-name="lochula.short" unicode="&#xf71d;" horiz-adv-x="1573" 
d="M1368 1352v-1352h-127l-377 975l-372 -975h-127v987q-11 -6 -24 -9.5t-25.5 -5t-22.5 -1.5h-14q-70 0 -116 30t-68.5 75t-22 97.5t24 97.5t69 75t113.5 30q41 0 78 -12.5t65 -37t44.5 -62t16.5 -88.5v-865l381 946l385 -946v930q-21 -9 -37.5 -12.5t-44.5 -3.5
q-69 0 -114.5 30t-68.5 75t-23 97.5t23 97.5t68.5 75t114.5 30q68 0 119 -36t70 -95l110 131l78 -74zM1167 1327q33 0 54.5 14.5t32.5 36.5t11 47.5t-11 47.5t-32.5 36.5t-54.5 14.5q-34 0 -56.5 -14.5t-33.5 -36.5t-11 -47.5t11 -47.5t33.5 -36.5t56.5 -14.5zM279 1073
q33 0 54.5 15t32.5 37t11 48.5t-11 48.5t-32.5 37t-54.5 15t-55 -15t-33 -37t-11 -48.5t11 -48.5t33 -37t55 -15z" />
    <glyph glyph-name="uni25CC" unicode="&#x25cc;" horiz-adv-x="2744" 
d="M1061 733l-197 -61l70 192q28 -40 59 -71.5t68 -59.5zM1278 1692l94 184l90 -180q-21 3 -42.5 3.5t-43.5 0.5q-25 0 -49 -2.5t-49 -5.5zM1454 639l-82 -172l-86 172q22 -3 45.5 -5.5t44.5 -2.5q22 0 41 2.5t37 5.5zM1905 1257l172 -90l-172 -77q3 18 5.5 37t2.5 40
q0 22 -2.5 45.5t-5.5 44.5zM852 1081l-184 95l184 90q-3 -25 -5.5 -49.5t-2.5 -49.5q0 -21 2.5 -42.5t5.5 -43.5zM946 1487l-53 188l184 -65q-40 -25 -71.5 -55.5t-59.5 -67.5zM1802 840l49 -168l-168 53q35 25 64.5 53t54.5 62zM1679 1610l201 65l-70 -192q-27 37 -58.5 68
t-72.5 59z" />
    <glyph glyph-name="yamakkanleftthai" 
d="M-500 2413q-42 8 -71 -2.5t-45 -32t-18.5 -48.5t8 -52.5t34 -45t60.5 -24.5l-17 -94q-34 6 -63 -11.5t-49 -48t-27.5 -69t2.5 -73.5t40 -62t85 -35l-8 -95q-65 2 -110 29.5t-71.5 69.5t-35 93.5t0 102.5t33 95.5t64.5 72.5q-31 36 -43.5 77t-9 80.5t22.5 75t52 60t79 36
t104 3.5z" />
    <glyph glyph-name="copyright" unicode="&#xa9;" horiz-adv-x="1700" 
d="M1634 758q0 -110 -28 -211t-78.5 -188.5t-121.5 -159t-158 -122t-187.5 -78.5t-208.5 -28q-110 0 -210.5 28t-188 78.5t-159 122t-122 159t-78.5 188.5t-28 211q0 107 28 207t78.5 187t122 158.5t159 122.5t188.5 79t210 28q108 0 208.5 -28t187.5 -79t158 -122.5
t121.5 -158.5t78.5 -187t28 -207zM1294 586q-31 -66 -74 -118.5t-97 -89t-118.5 -56t-136.5 -19.5q-97 0 -183 34t-151 95t-103 144.5t-38 181.5q0 97 38 180t102.5 144t150 95.5t180.5 34.5q69 0 135.5 -19.5t123 -56t101 -90t70.5 -120.5h-139q-23 38 -55 69t-70 53
t-80.5 34t-85.5 12q-72 0 -135.5 -25t-110.5 -69t-74.5 -105t-27.5 -133t29 -136t78 -111t112.5 -72.5t132.5 -20.5q90 6 160.5 46t126.5 118h139zM1511 758q0 91 -23.5 175t-66.5 157.5t-103 133.5t-133 103t-157.5 66.5t-175.5 23.5t-175.5 -23.5t-157.5 -66.5t-133 -103
t-103 -133.5t-66.5 -157.5t-23.5 -175t23.5 -175.5t66.5 -158t103 -133.5t133 -103t157.5 -66.5t175.5 -23.5t175.5 23.5t157.5 66.5t133 103t103 133.5t66.5 158t23.5 175.5z" />
    <glyph glyph-name="registered" unicode="&#xae;" horiz-adv-x="1577" 
d="M1573 758q0 -110 -28 -211t-78.5 -188.5t-121.5 -159t-158 -122t-187.5 -78.5t-208.5 -28q-110 0 -211 28t-188.5 78.5t-159 122t-122 159t-78.5 188.5t-28 211q0 107 28 207t78.5 187t122 158.5t159 122.5t188.5 79t211 28q108 0 208.5 -28t187.5 -79t158 -122.5
t121.5 -158.5t78.5 -187t28 -207zM1450 758q0 91 -23.5 175t-66.5 157.5t-103 133.5t-133.5 103t-157.5 66.5t-175 23.5t-175.5 -23.5t-158 -66.5t-133.5 -103t-103 -133.5t-66.5 -157.5t-23.5 -175q0 -137 52 -257t141.5 -209.5t209.5 -141.5t257 -52q91 0 175 23.5
t157.5 66.5t133.5 103t103 133.5t66.5 158t23.5 175.5zM1196 963q0 -68 -19 -114.5t-54 -75t-84 -42t-109 -14.5q62 -99 131 -203t131 -203h-148l-249 406h-185v-406h-123v893h390q154 0 236.5 -60.5t82.5 -180.5zM1073 967q0 48 -19 76t-50 43t-70.5 19.5t-81.5 4.5h-242
v-295h189q43 0 91 2.5t88.5 16.5t67.5 45t27 88z" />
    <glyph glyph-name="trademark" unicode="&#x2122;" horiz-adv-x="1782" 
d="M1548 623v716l-319 -716h-99l-319 716v-716h-115v893h156l328 -717l323 717h160v-893h-115zM377 1409v-786h-115v786h-209v107h529v-107h-205z" />
    <glyph glyph-name="multiply" unicode="&#xd7;" horiz-adv-x="1282" 
d="M733 684l377 -377l-94 -94l-377 377l-373 -373l-94 90l377 377l-373 369l94 94l369 -373l377 377l90 -94z" />
    <glyph glyph-name="divide" unicode="&#xf7;" horiz-adv-x="1241" 
d="M545 979v156h155v-156h-155zM106 541v155h1033v-155h-1033zM545 102v156h155v-156h-155z" />
    <glyph glyph-name="ZWSP" unicode="&#x200b;" 
 />
    <glyph glyph-name="yoyingthai" unicode="&#xe0d;" horiz-adv-x="1872" 
d="M877 0v119h81v803q0 72 -29 133.5t-80 106t-120.5 70t-150.5 25.5q-133 0 -221 -45.5t-140 -146.5l139 -156v-532q28 9 45 12.5t41 3.5q69 0 114.5 -30.5t68.5 -75.5t23 -98.5t-23 -98.5t-68.5 -75.5t-114.5 -30.5q-43 0 -80 15.5t-64.5 43.5t-43.5 67t-16 87v688
l-160 164q136 327 504 327q111 0 202 -32.5t156 -92.5t101 -144.5t36 -188.5v-799h479v1241h119v-1360h-798zM1671 -119q-20 -123 -71 -207.5t-127.5 -134.5t-177 -68.5t-218.5 -7.5q-51 5 -88.5 24.5t-62 48t-37 64t-12.5 72.5q0 40 13.5 77.5t39 67t62.5 47t85 17.5
q51 0 89 -17t64 -45.5t39 -65.5t13 -77q0 -31 -8.5 -58.5t-24.5 -55.5q136 24 211.5 108.5t87.5 210.5h123zM1077 -426q33 0 54.5 15t32.5 37t11 48.5t-11 48.5t-32.5 37t-54.5 15t-54.5 -15t-32.5 -37t-11 -48.5t11 -48.5t32.5 -37t54.5 -15zM442 86q34 0 56.5 15t34 37
t11.5 48.5t-11.5 48.5t-34 37t-56.5 15q-33 0 -54.5 -15t-32.5 -37t-11 -48.5t11 -48.5t32.5 -37t54.5 -15z" />
    <glyph glyph-name="sterling" unicode="&#xa3;" horiz-adv-x="1171" 
d="M905 1040q5 69 -18 133t-66 113t-102.5 78t-128.5 29q-60 0 -115.5 -22t-98 -61.5t-68 -94.5t-25.5 -121q0 -51 13 -96.5t33.5 -93.5t46 -101t50.5 -119h352v-135h-307q22 -83 37 -182.5t24 -231.5h492v-135h-909v135h270q-9 132 -25 231.5t-41 182.5h-163v135h114
q-24 57 -47.5 105t-42 93.5t-30 92.5t-11.5 102q0 98 33.5 182.5t92.5 147t139 98t174 35.5q89 0 172 -35.5t147.5 -97t103.5 -144.5t39 -178v-45h-135z" />
    <glyph glyph-name="yen" unicode="&#xa5;" horiz-adv-x="1290" 
d="M885 827h352v-139h-422l-94 -180h516v-139h-516v-369h-152v369h-512v139h512l-94 180h-418v139h344l-356 689h168l430 -852l434 852h164z" />
    <glyph glyph-name="cent" unicode="&#xa2;" horiz-adv-x="1159" 
d="M1044 573q-58 -123 -158 -199t-227 -91v-172h-122v172q-92 12 -171 52t-137 102t-90.5 142.5t-32.5 174.5q0 95 34.5 176t93.5 142.5t137 101t166 51.5v168h122v-168q63 -8 122.5 -32t110 -62t90 -89t62.5 -112h-143q-37 65 -102 108.5t-140 59.5v-684q151 24 242 159
h143zM537 1098q-63 -11 -117.5 -40.5t-95 -74t-63.5 -102t-23 -123.5t23.5 -124.5t64.5 -105t95 -77.5t116 -41v688z" />
    <glyph glyph-name="Euro" unicode="&#x20ac;" horiz-adv-x="1901" 
d="M1810 397q-49 -97 -122.5 -175.5t-163.5 -134t-193.5 -86t-212.5 -30.5q-137 0 -259 41.5t-221.5 116t-172 177.5t-109.5 226h-270v140h242q-3 21 -3.5 44.5t-0.5 45.5t0.5 45t3.5 45h-242v139h270q39 121 111 222t169.5 174t216.5 113t253 40q98 0 203 -26.5t201 -79
t174 -129.5t122 -179h-168q-43 66 -102.5 116t-129 83.5t-145.5 50.5t-151 17q-98 0 -189 -30.5t-167.5 -84.5t-136.5 -127.5t-97 -159.5h746v-139h-783q-3 -22 -5.5 -45t-2.5 -45t2.5 -45.5t5.5 -44.5h783v-140h-746q35 -92 95.5 -168t139 -130.5t171 -84.5t192.5 -30
q78 0 153.5 20t143 56t125.5 87.5t102 114.5h168z" />
    <glyph glyph-name="onequarter" unicode="&#xbc;" horiz-adv-x="1556" 
d="M1430 156v-156h-140v156h-438v106l430 631h148v-610h81v-127h-81zM356 0h-168l983 1516h172zM221 623v766h-147v127h286v-893h-139zM1290 668l-258 -385h258v385z" />
    <glyph glyph-name="onehalf" unicode="&#xbd;" horiz-adv-x="1556" 
d="M1487 627q0 -51 -15.5 -91.5t-40 -75.5t-55 -66t-61.5 -62l-217 -205h385v-127h-598v111l336 319q24 23 47.5 45t42 45.5t30 48.5t11.5 54q0 35 -12.5 63t-34.5 47.5t-52 30t-65 10.5q-37 0 -67.5 -14t-51.5 -40.5t-31.5 -64.5t-5.5 -86h-139q-5 75 16 137t62 106.5
t98.5 68.5t126.5 24q60 0 113 -21t92.5 -58.5t62.5 -88t23 -110.5zM270 0h-168l983 1516h172zM221 623v766h-147v127h286v-893h-139z" />
    <glyph glyph-name="threequarters" unicode="&#xbe;" horiz-adv-x="1692" 
d="M623 922q0 -60 -23 -113t-63 -92.5t-94 -62.5t-115 -23q-63 0 -117.5 25t-93.5 69t-60 102.5t-16 126.5h135q-2 -41 9.5 -76.5t32 -61t48 -40t58.5 -14.5q35 0 64.5 12t50.5 33t32.5 49.5t11.5 61.5q0 49 -28.5 90t-77.5 57q-28 9 -60.5 8.5t-66.5 -0.5v127l57 -4
q53 -3 88 23.5t35 78.5q0 95 -102 95q-95 0 -95 -136h-139q0 60 17 109t48 84.5t75 54.5t98 19q51 0 94 -18.5t75 -50.5t50 -74.5t18 -90.5q0 -46 -18.5 -82.5t-46.5 -64.5q59 -37 89 -96.5t30 -124.5zM1565 156v-156h-140v156h-438v106l430 631h148v-610h82v-127h-82z
M492 0h-168l983 1516h172zM1425 668l-258 -385h258v385z" />
    <glyph glyph-name="saraamleft" horiz-adv-x="1212" 
d="M-751 1638q-69 0 -114.5 30t-68.5 75t-23 98t23 98t68.5 75t114.5 30q68 0 114 -30t69 -75t22.5 -98t-23 -98t-68.5 -75t-114 -30zM823 0v938q0 67 -23 125.5t-64.5 101.5t-100.5 67.5t-131 24.5q-80 -2 -140.5 -29t-101.5 -71t-61.5 -102t-20.5 -121h-119
q0 92 30.5 172.5t88 140.5t139.5 94.5t185 34.5q104 -2 185.5 -35t137.5 -91.5t85.5 -138t29.5 -173.5v-938h-119zM-751 1741q34 0 56.5 15t33.5 37t11 48.5t-11 48.5t-33.5 37t-56.5 15q-33 0 -54.5 -15t-32.5 -37t-11 -48.5t11 -48.5t32.5 -37t54.5 -15z" />
    <glyph glyph-name="uni0E33.alt1" horiz-adv-x="1212" 
d="M-751 1638q-69 0 -114.5 30t-68.5 75t-23 98t23 98t68.5 75t114.5 30q68 0 114 -30t69 -75t22.5 -98t-23 -98t-68.5 -75t-114 -30zM823 0v938q0 67 -23 125.5t-64.5 101.5t-100.5 67.5t-131 24.5q-80 -2 -140.5 -29t-101.5 -71t-61.5 -102t-20.5 -121h-119
q0 92 30.5 172.5t88 140.5t139.5 94.5t185 34.5q104 -2 185.5 -35t137.5 -91.5t85.5 -138t29.5 -173.5v-938h-119zM-751 1741q34 0 56.5 15t33.5 37t11 48.5t-11 48.5t-33.5 37t-56.5 15q-33 0 -54.5 -15t-32.5 -37t-11 -48.5t11 -48.5t32.5 -37t54.5 -15z" />
    <glyph glyph-name="guillemotleft" unicode="&#xab;" horiz-adv-x="872" 
d="M676 209l-238 409l238 406l123 -61l-201 -345l201 -344zM324 209l-242 409l242 406l118 -61l-200 -345l200 -344z" />
    <glyph glyph-name="guillemotright" unicode="&#xbb;" horiz-adv-x="872" 
d="M549 209l-119 65l201 344l-201 345l119 61l242 -406zM193 209l-119 65l200 344l-200 345l119 61l241 -406z" />
    <glyph glyph-name="thothannobasethai" unicode="&#xf700;" horiz-adv-x="1176" 
d="M958 954q-3 21 -12.5 52t-28 64t-46.5 66t-68 59t-93 42t-120 16q-86 0 -152 -27.5t-112.5 -71t-73.5 -96.5t-35 -104h467q54 0 95 -17t67.5 -45t37.5 -64t5 -74l-123 -754h-119l-135 365q-31 -28 -66.5 -37t-60.5 -9q-68 0 -112.5 29.5t-66.5 73.5t-22 96t22.5 96
t67.5 73.5t111 29.5q43 0 76 -14.5t57 -38.5t40.5 -56t27.5 -67l98 -308l86 504q4 20 -1.5 38t-19 31.5t-33.5 21.5t-44 8h-582q-6 127 30 224t99.5 164t148 104.5t175 45.5t180 -14.5t164 -75t127 -135t67.5 -195.5h-123zM385 418q33 0 54.5 14.5t32.5 36.5t11 47t-11 47
t-32.5 36.5t-54.5 14.5t-54.5 -14.5t-32.5 -36.5t-11 -47t11 -47t32.5 -36.5t54.5 -14.5z" />
    <glyph glyph-name="exclam" unicode="!" horiz-adv-x="606" 
d="M229 401v1115h152v-1115h-152zM229 0v254h152v-254h-152z" />
    <glyph glyph-name="quotedbl" unicode="&#x22;" horiz-adv-x="635" 
d="M381 1053v463h106v-463h-106zM152 1053v463h106v-463h-106z" />
    <glyph glyph-name="numbersign" unicode="#" horiz-adv-x="1475" 
d="M1384 885h-376l-90 -254h376l-41 -119h-381l-184 -512h-106l184 512h-234l-188 -512h-106l188 512h-377l41 119h377l94 254h-377l41 119h377l189 512h106l-188 -512h233l188 512h107l-188 -512h381zM668 885l-95 -254h238l90 254h-233z" />
    <glyph glyph-name="dollar" unicode="$" horiz-adv-x="1135" 
d="M983 455q0 -72 -27 -141t-73.5 -123.5t-110.5 -89.5t-137 -40v-172h-131v172q-69 12 -132 45.5t-111 83.5t-76.5 114t-28.5 138v25h143q-5 -60 15.5 -110.5t58 -86.5t88.5 -56.5t108 -20.5q54 0 102.5 20t85 55t58 82t21.5 101q0 69 -21.5 116.5t-59 80.5t-87.5 54.5
t-107 38.5q-74 20 -139 49t-114.5 73.5t-78 108.5t-28.5 154q0 69 22 129.5t62 108t95.5 79.5t123.5 44v168h131v-168q73 -11 133.5 -43t104 -80.5t68 -112t26.5 -137.5h-144q0 54 -18 98.5t-50.5 76.5t-77.5 49.5t-99 17.5q-48 0 -89.5 -17t-73 -47t-49.5 -71.5t-18 -90.5
q0 -66 18.5 -108.5t51 -70.5t77.5 -44.5t99 -29.5q74 -20 144 -51t124.5 -80.5t87.5 -120t33 -170.5z" />
    <glyph glyph-name="percent" unicode="%" horiz-adv-x="1589" 
d="M737 1180q0 -72 -28.5 -137t-77.5 -114t-113.5 -77.5t-136.5 -28.5t-137 28.5t-113.5 78t-77 115t-28.5 139.5q0 78 27 143.5t75 113t114 73.5t144 26q75 0 139.5 -28.5t112 -78t74 -115t26.5 -138.5zM520 0h-147l680 1516h147zM1544 328q0 -74 -28.5 -139t-77.5 -113.5
t-113.5 -76.5t-136.5 -28t-137 28.5t-114 77.5t-77.5 114t-28.5 137q0 78 27 145t75 115.5t114.5 76t144.5 27.5q75 0 139.5 -29.5t112 -79t74 -116t26.5 -139.5zM590 1192q0 42 -16 78.5t-43.5 63.5t-65 43t-80.5 16q-48 0 -87.5 -15t-68.5 -42t-45 -65.5t-16 -86.5
q0 -45 17 -84.5t46.5 -69t68 -46.5t81.5 -17q45 0 83 17.5t66 47.5t44 71t16 89zM1401 336q0 43 -16.5 81.5t-45 68t-66.5 46.5t-81 17q-48 0 -87.5 -16.5t-68.5 -46t-45 -70t-16 -88.5q0 -45 17 -83t46.5 -66t68 -44t81.5 -16q48 0 87 17t67 46.5t43.5 69t15.5 84.5z" />
    <glyph glyph-name="ampersand" unicode="&#x26;" horiz-adv-x="1552" 
d="M1397 -29l-344 340q-37 -72 -82 -134t-101.5 -108t-126.5 -72t-157 -26q-97 0 -182 37.5t-148.5 101.5t-100 149.5t-36.5 182.5q0 81 28.5 149.5t75.5 125t108.5 100.5t127.5 76q-35 35 -64.5 68.5t-50.5 70.5t-33 79.5t-12 96.5q0 68 30 128.5t79.5 105.5t113 71.5
t129.5 26.5q75 0 143 -27t119 -75t81 -114t30 -144q0 -66 -25.5 -119t-66.5 -94.5t-94.5 -72.5t-108.5 -54l287 -283l217 426h172l-283 -532l385 -373zM872 1200q0 42 -19 77t-49 61t-68 40.5t-77 14.5q-41 0 -79 -14t-66.5 -39.5t-45.5 -61t-17 -78.5q0 -38 16.5 -72.5
t41 -66t53 -59t52.5 -52.5q40 17 85.5 38.5t83.5 51t63.5 69t25.5 91.5zM573 778q-54 -23 -108 -54.5t-97.5 -73.5t-70.5 -96.5t-27 -123.5q0 -62 24.5 -118t66 -99t96.5 -68.5t116 -25.5q74 0 129 25.5t98 67.5t76 96.5t62 113.5z" />
    <glyph glyph-name="quotesingle" unicode="'" horiz-adv-x="406" 
d="M152 1053v463h102v-463h-102z" />
    <glyph glyph-name="parenleft" unicode="(" horiz-adv-x="758" 
d="M688 -262q-79 24 -151.5 73.5t-136 116.5t-115.5 149t-88.5 172.5t-57 185.5t-20.5 188q0 87 17.5 179.5t51 183t82.5 174.5t112 154t140 122.5t166 79.5v-132q-98 -57 -175.5 -141t-131.5 -184.5t-82.5 -212t-28.5 -223.5q0 -108 29.5 -218.5t84 -210.5t132 -183.5
t172.5 -137.5v-135z" />
    <glyph glyph-name="parenright" unicode=")" horiz-adv-x="758" 
d="M639 623q0 -91 -19.5 -185t-56 -183.5t-88 -171.5t-114.5 -149.5t-136.5 -118.5t-154.5 -77v135q97 52 174 136t131 185t83 212t29 217q0 114 -28.5 225t-82 210.5t-131 182t-175.5 139.5v136q132 -50 237.5 -141.5t179 -210.5t113 -258t39.5 -283z" />
    <glyph glyph-name="asterisk" unicode="*" horiz-adv-x="872" 
d="M532 1192l111 -180l-94 -58l-111 185l-106 -185l-99 58l111 180h-213v106h213l-111 185l99 57l106 -184l111 184l94 -57l-111 -185h205v-106h-205z" />
    <glyph glyph-name="plus" unicode="+" horiz-adv-x="1241" 
d="M700 545v-439h-155v439h-434v155h434v430h155v-430h435v-155h-435z" />
    <glyph glyph-name="comma" unicode="," horiz-adv-x="569" 
d="M340 -139h-152l181 397h151z" />
    <glyph glyph-name="hyphen" unicode="-" horiz-adv-x="1004" 
d="M143 549v135h717v-135h-717z" />
    <glyph glyph-name="period" unicode="." horiz-adv-x="569" 
d="M209 0v258h151v-258h-151z" />
    <glyph glyph-name="slash" unicode="/" horiz-adv-x="897" 
d="M217 -262h-135l594 1778h139z" />
    <glyph glyph-name="zero" unicode="0" horiz-adv-x="1135" 
d="M1077 541q5 -122 -30 -226t-102 -180.5t-163 -120t-213 -43.5q-114 0 -209 42.5t-163 117.5t-104.5 179t-31.5 227v434q0 129 36 234t102.5 179.5t160.5 115t209 40.5q118 0 212.5 -44.5t160 -122t100.5 -181t35 -221.5v-430zM926 967q0 114 -30.5 194.5t-80.5 132
t-114 75.5t-132 24q-72 0 -136.5 -26.5t-113.5 -80.5t-77.5 -135.5t-28.5 -192.5v-401q0 -218 93.5 -328t262.5 -110q172 0 264.5 112.5t92.5 333.5v402z" />
    <glyph glyph-name="one" unicode="1" horiz-adv-x="1135" 
d="M565 0v1376h-258v140h410v-1516h-152z" />
    <glyph glyph-name="two" unicode="2" horiz-adv-x="1135" 
d="M1036 1081q0 -84 -25 -152.5t-66 -127t-93.5 -111t-106.5 -104.5l-466 -447h749v-139h-958v135l577 557q42 39 84 81.5t76.5 90t56 100.5t21.5 113q0 69 -26.5 127t-72 100t-106 65.5t-127.5 23.5q-75 0 -137 -29.5t-104.5 -79.5t-63.5 -117.5t-15 -142.5h-151
q-8 111 25.5 205.5t99 163.5t157.5 108t201 39q94 0 179 -36.5t150 -99t103.5 -146t38.5 -177.5z" />
    <glyph glyph-name="three" unicode="3" horiz-adv-x="1135" 
d="M1032 463q0 -101 -38 -190.5t-104 -156.5t-155 -106t-190 -39q-102 0 -190.5 41.5t-153.5 111t-100.5 160.5t-30.5 191h151q-5 -68 19 -132t68.5 -113.5t104.5 -80t128 -30.5q72 0 134 26t108 71.5t72 108t26 134.5q0 84 -37.5 152t-98.5 113.5t-138 65t-156 5.5v135
l53 -4q55 -5 105.5 8.5t88.5 43.5t61 76.5t23 108.5q0 51 -18 93t-50 72.5t-75 47.5t-94 17q-54 0 -95.5 -21.5t-69 -56.5t-42 -81t-14.5 -95h-152q0 84 27.5 157.5t77.5 127.5t121.5 85t158.5 31q80 0 149 -31t119.5 -84t79.5 -123.5t29 -150.5q0 -48 -10.5 -87t-30.5 -73
t-49 -64t-66 -59q60 -26 107 -69t80 -96.5t50 -115t17 -124.5z" />
    <glyph glyph-name="four" unicode="4" horiz-adv-x="1135" 
d="M942 279v-279h-151v279h-766v135l733 1102h184v-1102h143v-135h-143zM791 1307l-586 -893h586v893z" />
    <glyph glyph-name="five" unicode="5" horiz-adv-x="1135" 
d="M1081 504q0 -106 -38.5 -202.5t-106.5 -170t-161 -117t-202 -43.5q-107 0 -199 39.5t-160.5 108t-110.5 160.5t-50 196h152q4 -72 33 -136.5t76.5 -113.5t111.5 -77.5t139 -28.5q80 0 147 30t115.5 82t75.5 121.5t27 147.5t-27 148t-75 122.5t-114.5 83.5t-144.5 31
q-96 0 -174 -44.5t-137 -115.5l-123 45l139 746h693v-140h-570l-78 -418q59 35 123 54.5t136 19.5q106 0 197.5 -43t159.5 -115.5t107 -168t39 -201.5z" />
    <glyph glyph-name="six" unicode="6" horiz-adv-x="1135" 
d="M1085 504q0 -106 -41.5 -202.5t-112.5 -170t-165.5 -117t-200.5 -43.5q-107 0 -200.5 43t-162.5 115.5t-109 168.5t-40 202q0 75 14.5 136.5t40.5 118t61 110.5t77 114l360 537h176l-360 -533q40 22 83.5 33.5t96.5 11.5q105 0 193.5 -45t153 -118.5t100.5 -168
t36 -192.5zM934 500q0 78 -28.5 148t-78 122.5t-117 83.5t-145.5 31t-144 -30t-114 -81t-75 -119t-27 -143q0 -78 26.5 -149.5t74 -125.5t113.5 -86t146 -32q78 0 145.5 30t117 82t78 121.5t28.5 147.5z" />
    <glyph glyph-name="seven" unicode="7" horiz-adv-x="1135" 
d="M385 0h-164l623 1376h-721v140h881v-140z" />
    <glyph glyph-name="eight" unicode="8" horiz-adv-x="1135" 
d="M1049 446q0 -100 -39.5 -186.5t-106.5 -150.5t-155.5 -101t-186.5 -37q-97 0 -183 37.5t-151 102t-103 151t-38 184.5q0 60 18.5 122.5t52 117.5t81 98t106.5 64q-90 46 -133 125t-43 178q0 86 33 157.5t88.5 123t129 80t154.5 28.5q86 0 159 -31t126 -85t83 -127.5
t30 -157.5q0 -48 -12 -92.5t-35 -82.5t-56.5 -68t-76.5 -48q60 -26 107.5 -67.5t81 -93.5t51.5 -113.5t18 -127.5zM819 1151q0 51 -19.5 95t-52.5 76.5t-78 51.5t-96 19q-49 0 -95 -16.5t-81 -46.5t-56.5 -73.5t-21.5 -97.5t19.5 -99.5t54 -79t80.5 -52.5t100 -19
q48 0 92 19.5t78.5 52.5t55 77t20.5 93zM897 446q0 68 -27 126.5t-73 101.5t-106 67.5t-126 24.5q-68 0 -127.5 -26.5t-103.5 -70t-70 -100.5t-26 -118q0 -72 25 -133t69 -105.5t102.5 -69t126.5 -24.5q72 0 133.5 25t106.5 69.5t70.5 104t25.5 128.5z" />
    <glyph glyph-name="nine" unicode="9" horiz-adv-x="1135" 
d="M1085 1016q0 -75 -15 -137t-41.5 -118t-62.5 -110t-77 -114l-357 -537h-176l357 532q-83 -49 -164 -49q-111 0 -202 45t-156.5 119.5t-101.5 169.5t-36 195q0 70 18.5 137t52.5 125.5t81.5 107.5t105.5 84t124.5 54.5t137.5 19.5q70 0 135 -19.5t122 -54.5t104 -83.5
t80.5 -107t52 -124.5t18.5 -135zM934 1004q0 76 -27 146.5t-75.5 124.5t-115.5 86t-147 32q-78 0 -145 -30.5t-115.5 -82.5t-76 -120.5t-27.5 -143.5q0 -78 31 -147.5t82 -121.5t116.5 -82t134.5 -30q78 0 145 28.5t116 78t76.5 117t27.5 145.5z" />
    <glyph glyph-name="colon" unicode=":" horiz-adv-x="569" 
d="M209 786v258h151v-258h-151zM209 0v258h151v-258h-151z" />
    <glyph glyph-name="semicolon" unicode=";" horiz-adv-x="569" 
d="M266 786v258h152v-258h-152zM238 -139h-152l180 397h152z" />
    <glyph glyph-name="less" unicode="&#x3c;" horiz-adv-x="1241" 
d="M102 553v131l1041 475v-151l-848 -390l848 -393v-147z" />
    <glyph glyph-name="equal" unicode="=" horiz-adv-x="1241" 
d="M106 741v152h1033v-152h-1033zM106 340v156h1033v-156h-1033z" />
    <glyph glyph-name="greater" unicode="&#x3e;" horiz-adv-x="1241" 
d="M98 78v147l848 393l-848 390v151l1045 -475v-131z" />
    <glyph glyph-name="question" unicode="?" horiz-adv-x="1212" 
d="M1077 1077q0 -58 -16 -105.5t-42.5 -88.5t-60 -76.5t-69 -70.5t-70 -70.5t-62 -76t-45.5 -87.5t-20 -105h-151q0 96 28.5 167t71.5 126.5t92.5 101t92.5 90.5t71.5 95.5t28.5 116.5t-27 121t-71.5 94.5t-102.5 61.5t-119 22q-72 0 -134 -29t-106.5 -78t-68 -113
t-18.5 -133h-144v45q0 95 41 178t108.5 144.5t154.5 97t179 35.5q99 0 183 -35.5t145.5 -98t96 -147t34.5 -182.5zM541 0v254h151v-254h-151z" />
    <glyph glyph-name="at" unicode="@" horiz-adv-x="1778" 
d="M1634 889q0 -109 -30.5 -201t-92.5 -176q-30 -45 -67.5 -85.5t-82.5 -71.5t-97.5 -49.5t-112.5 -18.5q-26 0 -53 5.5t-50.5 18t-42.5 33t-30 49.5q-47 -49 -114 -75.5t-132 -26.5q-66 0 -119 24.5t-90.5 66t-57.5 97.5t-20 119q0 70 16.5 143.5t48 143t76.5 131.5
t102 108.5t124.5 73.5t144.5 27q36 0 70 -8t64 -24.5t54.5 -42t41.5 -60.5l33 94h139l-209 -623q-12 -24 -20 -53.5t-6.5 -55t15 -42.5t44.5 -17q35 0 71 15.5t69 39.5t61.5 54t48.5 59q102 145 102 336q0 126 -51 227t-135.5 171.5t-193.5 108.5t-226 38
q-93 0 -179.5 -25.5t-161.5 -70.5t-137 -108t-106 -137.5t-68 -158.5t-24 -172q0 -144 51.5 -270.5t142.5 -220t215.5 -147.5t270.5 -54q80 0 157 19.5t147.5 55.5t131.5 88.5t109 118.5h122q-49 -90 -121 -161.5t-159 -121t-185.5 -76t-201.5 -26.5q-111 0 -212 28
t-188 79.5t-157.5 123.5t-121 160t-77.5 189.5t-27 210.5q0 106 28 205t79.5 185t123 157t158.5 121t187 78t207 28q90 0 177 -21t165.5 -60.5t144.5 -96.5t114.5 -129.5t75.5 -159t27 -184.5zM1102 954q0 29 -11 56t-30.5 47.5t-45.5 32.5t-57 12q-55 0 -103.5 -23.5
t-88.5 -63t-71 -90.5t-52.5 -105.5t-33 -109t-11.5 -100.5q0 -37 10.5 -71t31 -60t50 -41.5t68.5 -15.5q41 0 77 16.5t66 42.5t53.5 58t40.5 63q18 37 37 81t34.5 90.5t25.5 93t10 87.5z" />
    <glyph glyph-name="A" unicode="A" horiz-adv-x="1507" 
d="M1323 0l-221 508h-705l-217 -508h-164l652 1516h168l651 -1516h-164zM754 1339l-295 -692h585z" />
    <glyph glyph-name="B" unicode="B" horiz-adv-x="1159" 
d="M1098 430q-5 -115 -46.5 -196.5t-118 -133.5t-186.5 -76t-251 -24h-357v1516h398q103 0 190.5 -28t151.5 -80.5t100.5 -127t36.5 -166.5q0 -96 -42.5 -170t-125.5 -133q121 -50 187 -149t63 -232zM864 1122q0 66 -29 114t-80 79t-121 46t-151 15h-192v-508h225
q63 0 125 14.5t111.5 45t80.5 78.5t31 116zM946 426q-5 94 -45 153t-101.5 92.5t-137 45.5t-150.5 12h-221v-590h196q99 0 180 12.5t140.5 45t95 88t43.5 141.5z" />
    <glyph glyph-name="C" unicode="C" horiz-adv-x="1655" 
d="M1565 397q-49 -97 -122.5 -175.5t-164 -134t-194 -86t-212.5 -30.5q-111 0 -212.5 28t-190 79t-160.5 122.5t-123.5 159.5t-79.5 189.5t-28 212.5q0 107 28 206.5t79 186t122.5 157.5t158.5 121.5t187 78.5t207 28q98 0 203 -26.5t201 -79t174 -129.5t123 -179h-168
q-43 66 -103 116t-129.5 83.5t-145.5 50.5t-151 17q-86 0 -166.5 -23.5t-151 -66t-129 -101.5t-100.5 -129t-65 -149t-23 -162q0 -87 23.5 -168.5t66.5 -153t102.5 -130.5t131 -101.5t152.5 -66t167 -23.5q78 0 153.5 20t143 56t125.5 87.5t103 114.5h168z" />
    <glyph glyph-name="D" unicode="D" horiz-adv-x="1507" 
d="M1417 762q0 -118 -29.5 -220t-83.5 -187t-128.5 -151t-164.5 -111.5t-192.5 -69t-212.5 -23.5h-467v1516h410q127 0 240.5 -25t210 -72t174 -114t131.5 -151t83 -183t29 -209zM1266 762q0 135 -50 249.5t-145 197t-232 127.5t-311 40h-237v-1237h278q143 0 269.5 41.5
t221.5 121t150.5 195.5t55.5 265z" />
    <glyph glyph-name="E" unicode="E" horiz-adv-x="1081" 
d="M139 0v1516h828v-140h-676v-545h647v-135h-647v-557h676v-139h-828z" />
    <glyph glyph-name="F" unicode="F" horiz-adv-x="995" 
d="M295 1376v-545h586v-139h-586v-692h-152v1516h770v-140h-618z" />
    <glyph glyph-name="G" unicode="G" horiz-adv-x="1774" 
d="M1692 700q-8 -103 -42.5 -197.5t-89.5 -175.5t-128.5 -146.5t-160 -112t-183.5 -72t-199 -25.5q-110 0 -212.5 28t-192.5 79.5t-164.5 124t-128.5 161t-83.5 190t-29.5 212.5q0 109 30 209t84.5 186t130 156t165.5 119.5t192 76.5t209 27q103 0 211 -28.5t204.5 -83.5
t174 -135t118.5 -183h-172q-41 67 -100 120t-129.5 89t-148.5 55t-158 19q-85 0 -167 -21t-155.5 -60.5t-135 -96t-106.5 -126.5t-70.5 -152.5t-25.5 -174.5t24.5 -175.5t68.5 -155t106 -129.5t136 -98.5t158.5 -62.5t174.5 -22q103 0 200 32t178.5 90.5t142 140t89.5 179.5
h-843v139h1028z" />
    <glyph glyph-name="H" unicode="H" horiz-adv-x="1384" 
d="M1077 0v713h-786v-713h-152v1516h152v-668h786v668h152v-1516h-152z" />
    <glyph glyph-name="I" unicode="I" horiz-adv-x="459" 
d="M152 0v1516h151v-1516h-151z" />
    <glyph glyph-name="J" unicode="J" horiz-adv-x="979" 
d="M823 406q0 -100 -28.5 -180.5t-81.5 -137t-128 -87t-167 -30.5q-84 0 -157 29t-127 81t-85.5 123.5t-32.5 155.5h148q4 -54 27 -98t59 -76t83 -49.5t101 -17.5q112 0 175 74.5t63 207.5v1115h151v-1110z" />
    <glyph glyph-name="K" unicode="K" horiz-adv-x="1196" 
d="M995 0l-508 655l-196 -241v-414h-152v1516h152v-873l700 873h193l-598 -738l598 -778h-189z" />
    <glyph glyph-name="L" unicode="L" horiz-adv-x="930" 
d="M139 0v1516h152v-1377h618v-139h-770z" />
    <glyph glyph-name="M" unicode="M" horiz-adv-x="1868" 
d="M1561 0v1343l-566 -1343h-139l-565 1343v-1343h-152v1516h230l557 -1295l557 1295h229v-1516h-151z" />
    <glyph glyph-name="N" unicode="N" horiz-adv-x="1499" 
d="M1196 0l-905 1327v-1327h-152v1516h201l852 -1254v1254h151v-1516h-147z" />
    <glyph glyph-name="O" unicode="O" horiz-adv-x="1774" 
d="M1683 762q0 -110 -29 -211t-81.5 -189t-126 -160t-163 -123.5t-191.5 -79.5t-211 -28q-106 0 -206 27.5t-188.5 78t-163 121t-128 157t-83.5 186.5t-30 209t28.5 210t81 188.5t125.5 159t162 122t190.5 78.5t211.5 28q106 0 207 -27t190 -76.5t163.5 -119.5t128 -156
t83.5 -186t30 -209zM1532 762q0 87 -24 167.5t-67.5 150.5t-103 128t-131.5 99t-153.5 63.5t-167.5 22.5q-89 0 -172 -23t-155.5 -64.5t-132.5 -100.5t-102.5 -130.5t-66 -153.5t-23.5 -171q0 -87 24.5 -168t68 -151t104.5 -127.5t133.5 -98.5t154 -63.5t167.5 -22.5
q89 0 171.5 23t154.5 64.5t131 100.5t101.5 130.5t65.5 153.5t23 171z" />
    <glyph glyph-name="P" unicode="P" horiz-adv-x="1196" 
d="M1143 1061q0 -122 -48.5 -208t-128 -140t-181 -78.5t-207.5 -24.5h-287v-610h-152v1516h398q80 0 156 -10t143 -31.5t123.5 -57t97.5 -86t63.5 -117.5t22.5 -153zM991 1061q0 80 -33.5 139t-90 98t-131.5 58.5t-158 19.5h-287v-626h291q78 0 152 17.5t131 55t91.5 96.5
t34.5 142z" />
    <glyph glyph-name="Q" unicode="Q" horiz-adv-x="1774" 
d="M1708 741q0 -158 -66.5 -301t-187.5 -252q47 -34 99.5 -53.5t129.5 -19.5v-144q-110 0 -189.5 33t-150.5 98q-47 -32 -101.5 -56.5t-113 -41t-119 -25t-120.5 -8.5q-108 0 -209.5 27t-191.5 76.5t-165.5 119.5t-130 156t-84.5 186t-30 209q0 116 29 220t82 192t127.5 159
t165 121t194.5 76.5t217 26.5q115 0 220 -27t195.5 -77t164 -121.5t126 -160.5t81 -193t28.5 -220zM1556 745q0 140 -51 258.5t-140.5 205t-210.5 135.5t-261 49q-90 0 -174.5 -22t-158 -63t-134.5 -99t-105 -130t-68 -156.5t-24 -177.5q0 -43 6.5 -85.5t18.5 -86.5
q149 51 299 54t292 -35t270 -115t233 -186q96 87 152 204t56 250zM1229 209q-91 91 -203.5 153.5t-233.5 93.5t-243.5 28.5t-233.5 -42.5q43 -78 108 -138.5t142.5 -101.5t163.5 -62t172 -21q84 0 170.5 21.5t157.5 68.5z" />
    <glyph glyph-name="R" unicode="R" horiz-adv-x="1229" 
d="M1167 1020q0 -92 -35 -173t-95.5 -142t-142 -98t-173.5 -42l426 -565h-189l-516 688h107q46 0 98.5 6t104.5 21.5t99.5 41t84 64t58.5 92t22 123.5q0 88 -38 152t-101.5 106t-147.5 62t-176 20h-262v-1376h-152v1516h398q130 4 245 -23t200.5 -88.5t135 -157t49.5 -227.5
z" />
    <glyph glyph-name="S" unicode="S" horiz-adv-x="1008" 
d="M963 418q0 -94 -37 -175.5t-100 -142t-146.5 -95t-175.5 -34.5q-97 0 -182.5 33.5t-149.5 94t-101.5 144t-37.5 183.5h164q1 -63 24 -119t63 -97.5t95 -66t121 -24.5t123 22t98.5 61.5t65.5 94.5t24 121t-26.5 117.5t-72.5 90.5t-107 65.5t-130 41.5q-68 15 -137.5 43.5
t-126.5 75.5t-93 115t-36 163q0 92 33 167.5t91 129.5t136.5 83.5t169.5 29.5q87 0 163 -32.5t131.5 -88t87.5 -130t32 -159.5h-156q-5 57 -26.5 105t-57.5 83.5t-85 55t-109 19.5q-56 0 -103 -21t-82 -56.5t-54.5 -83.5t-19.5 -102q0 -68 25.5 -113t67.5 -75t95.5 -48
t110.5 -30q92 -23 171 -58.5t136.5 -89t90.5 -127t33 -171.5z" />
    <glyph glyph-name="T" unicode="T" horiz-adv-x="868" 
d="M512 1376v-1376h-152v1376h-344v140h836v-140h-340z" />
    <glyph glyph-name="U" unicode="U" horiz-adv-x="1327" 
d="M1171 573q0 -134 -37 -244.5t-104.5 -190t-162.5 -123.5t-212 -44t-212 42t-162.5 120t-104.5 187.5t-37 244.5v951h152v-955q0 -86 21 -165.5t65.5 -141t113.5 -98.5t164 -37q81 0 148.5 33.5t115.5 93.5t74.5 142.5t26.5 180.5v947h151v-943z" />
    <glyph glyph-name="V" unicode="V" horiz-adv-x="1434" 
d="M786 0h-143l-623 1516h168l525 -1328l536 1328h164z" />
    <glyph glyph-name="W" unicode="W" horiz-adv-x="1958" 
d="M1507 0h-200l-332 1241l-332 -1241h-201l-430 1516h160l369 -1319l364 1319h144l360 -1319l373 1319h155z" />
    <glyph glyph-name="X" unicode="X" horiz-adv-x="1245" 
d="M1049 0l-426 647l-430 -647h-181l516 774l-483 742h176l402 -607l397 607h176l-487 -742l520 -774h-180z" />
    <glyph glyph-name="Y" unicode="Y" horiz-adv-x="1208" 
d="M680 508v-508h-152v508l-524 1008h168l430 -852l434 852h164z" />
    <glyph glyph-name="Z" unicode="Z" horiz-adv-x="975" 
d="M29 0v135l741 1241h-721v140h893v-140l-741 -1237h757v-139h-929z" />
    <glyph glyph-name="bracketleft" unicode="[" horiz-adv-x="721" 
d="M643 -590q-98 29 -175 82.5t-130 127.5t-81 166t-28 198v1298q0 98 28 187t81 162.5t130 128t175 83.5v-155q-75 -36 -126 -79t-82 -96.5t-44.5 -118.5t-13.5 -145v-1224q0 -86 10 -155t38.5 -124t81 -99t136.5 -81v-156z" />
    <glyph glyph-name="backslash" unicode="\" horiz-adv-x="1241" 
d="M807 0l-635 1516h147l631 -1516h-143z" />
    <glyph glyph-name="bracketright" unicode="]" horiz-adv-x="721" 
d="M492 -29q0 -98 -28 -188t-81 -164.5t-130 -128.5t-175 -80v156q75 31 126 74t82 97.5t44.5 121.5t13.5 145v1253q0 80 -14 144t-45.5 116t-82.5 93.5t-124 77.5v155q117 -38 196 -96t127.5 -132t69.5 -161t21 -184v-1299z" />
    <glyph glyph-name="asciicircum" unicode="^" horiz-adv-x="1376" 
d="M1139 369l-455 991l-442 -991h-131l516 1147h118l525 -1147h-131z" />
    <glyph glyph-name="underscore" unicode="_" horiz-adv-x="1024" 
d="M0 -422v115h1024v-115h-1024z" />
    <glyph glyph-name="grave" unicode="`" horiz-adv-x="774" 
d="M557 1257l-405 218l65 122l406 -221z" />
    <glyph glyph-name="a" unicode="a" horiz-adv-x="1393" 
d="M1118 0v213q-32 -60 -79 -105.5t-104 -75.5t-121 -45.5t-130 -15.5q-129 0 -240 48t-192 130t-127.5 190.5t-46.5 229.5q0 102 30 185t79 147t112 110.5t130 76.5t132.5 44.5t118.5 14.5q66 0 130.5 -14.5t122 -44.5t105.5 -74.5t80 -104.5v213h144v-1122h-144zM1118 553
q0 94 -33.5 175.5t-92 141.5t-138.5 94.5t-174 34.5t-176 -34.5t-143 -94.5t-96.5 -140.5t-35.5 -172.5t37 -172t99.5 -139t145 -93t173.5 -34q88 0 166.5 35t138 94.5t94.5 138t35 166.5z" />
    <glyph glyph-name="b" unicode="b" horiz-adv-x="1393" 
d="M1307 565q0 -95 -24.5 -176t-67.5 -147t-100.5 -116.5t-123 -85t-136 -52t-138.5 -17.5q-62 0 -127 14.5t-125.5 42.5t-111.5 69.5t-83 95.5v-193h-143v1679h152v-766q29 60 75.5 104t103 73t119 43t123.5 14q123 0 233 -45t193.5 -123t132 -184.5t48.5 -229.5zM1155 561
q0 97 -35.5 177.5t-96.5 138.5t-143 90t-175 32q-95 0 -175.5 -35t-139 -95.5t-91.5 -142t-33 -173.5q0 -94 35.5 -173.5t96.5 -137.5t143 -90.5t176 -32.5q90 0 170 35t139.5 95t94 140.5t34.5 171.5z" />
    <glyph glyph-name="c" unicode="c" horiz-adv-x="1311" 
d="M1237 328q-38 -81 -93.5 -147t-125 -112.5t-152 -72t-174.5 -25.5q-126 0 -237.5 44.5t-195.5 123t-132.5 186.5t-48.5 236q0 83 22.5 158.5t62.5 141t96.5 118t123.5 90t143.5 58t157.5 20.5q91 0 176.5 -24.5t158.5 -71.5t129.5 -115t88.5 -154h-168q-29 49 -71 89
t-92 68.5t-105.5 44t-112.5 15.5q-94 0 -177.5 -32.5t-146 -90.5t-99 -137.5t-36.5 -173.5q0 -95 37.5 -178.5t101.5 -144.5t148 -94.5t176 -28.5q124 9 215 59.5t162 149.5h168z" />
    <glyph glyph-name="d" unicode="d" horiz-adv-x="1393" 
d="M1122 0v205q-83 -118 -195.5 -176t-254.5 -58q-54 0 -119 14.5t-131 45t-128 78t-110 113.5t-77 151.5t-29 191.5q0 82 22 157t62 139.5t95.5 117.5t122.5 90t143 57.5t157 20.5q63 0 125.5 -14t119.5 -41.5t105.5 -69t83.5 -96.5v753h152v-1679h-144zM1118 565
q0 94 -35 173.5t-95.5 137.5t-142 90.5t-173.5 32.5q-91 0 -171.5 -34t-141 -92.5t-95.5 -137.5t-35 -170q0 -92 35 -173.5t96 -142t142.5 -95.5t173.5 -35t172.5 35t140.5 95.5t94.5 142t34.5 173.5z" />
    <glyph glyph-name="e" unicode="e" horiz-adv-x="1323" 
d="M229 508q5 -81 43 -152t98 -123.5t137.5 -83t160.5 -30.5q61 0 120 17.5t110 50t91.5 77.5t63.5 101h159q-27 -85 -83 -157t-129 -124.5t-159 -82.5t-173 -30q-125 0 -232.5 45.5t-187 125t-125 187t-45.5 232.5q0 123 45.5 230t124.5 186t186 124.5t230 45.5
q85 0 162 -23t142.5 -65t118 -101t88.5 -130t54.5 -152t15.5 -168h-1016zM1094 643q-17 75 -56.5 140t-95.5 113t-127 75.5t-151 27.5q-78 0 -151 -26t-131.5 -73.5t-98.5 -113t-54 -143.5h865z" />
    <glyph glyph-name="f" unicode="f" horiz-adv-x="635" 
d="M352 983v-983h-151v983h-176v139h176q-5 94 22.5 167t82.5 123.5t136.5 77t184.5 26.5v-140q-71 0 -123 -12.5t-85.5 -42t-50 -78.5t-16.5 -121h279v-139h-279z" />
    <glyph glyph-name="g" unicode="g" horiz-adv-x="1372" 
d="M1241 -4q0 -144 -45 -255.5t-123 -187.5t-182.5 -115.5t-222.5 -39.5q-94 0 -182 29.5t-161.5 83t-127.5 129t-78 167.5h147q35 -61 77 -110.5t93 -84t111.5 -53t132.5 -18.5q94 0 171 28.5t132 82.5t85 132.5t30 178.5v258q-29 -63 -76.5 -110t-106 -78t-124.5 -46.5
t-132 -15.5q-81 0 -155.5 21.5t-139 60.5t-117.5 93t-90.5 119t-58 139t-20.5 153q0 104 27.5 188.5t73 150t104.5 113t123 78.5t127.5 45.5t117.5 14.5q66 0 132 -15.5t125 -45.5t108.5 -75.5t81.5 -105.5v217h143v-1126zM1094 561q0 94 -34.5 174t-95 138.5t-142 92
t-175.5 33.5q-87 0 -163.5 -34t-133 -92.5t-89 -136t-32.5 -163.5q0 -93 31 -176t87.5 -144.5t135.5 -97.5t176 -36q99 0 179 37t137 98.5t88 141t31 165.5z" />
    <glyph glyph-name="h" unicode="h" horiz-adv-x="1237" 
d="M958 0v635q0 78 -25 145t-71.5 115.5t-112.5 76t-147 27.5q-72 0 -133 -24.5t-105 -69t-69 -105t-25 -132.5v-668h-151v1679h151v-721q25 48 62 83.5t82 59t95 35t101 11.5q121 0 214.5 -45t157 -117.5t96 -164t32.5 -185.5v-635h-152z" />
    <glyph glyph-name="i" unicode="i" horiz-adv-x="479" 
d="M164 1257v259h151v-259h-151zM164 0v1122h151v-1122h-151z" />
    <glyph glyph-name="j" unicode="j" horiz-adv-x="410" 
d="M127 1257v259h152v-259h-152zM279 -123q0 -91 -22 -170t-68.5 -137.5t-118.5 -92.5t-172 -34v147q80 5 125.5 35t68.5 78t29 109t6 127v1183h152v-1245z" />
    <glyph glyph-name="k" unicode="k" horiz-adv-x="1016" 
d="M811 0l-365 442l-176 -229v-213h-151v1679h151v-1228l512 671h197l-434 -561l463 -561h-197z" />
    <glyph glyph-name="l" unicode="l" horiz-adv-x="401" 
d="M123 0v1679h151v-1679h-151z" />
    <glyph glyph-name="m" unicode="m" horiz-adv-x="1909" 
d="M1630 0v664q0 69 -21.5 130t-62 106.5t-98 72t-129.5 26.5q-68 0 -122.5 -23t-92.5 -64.5t-59 -97.5t-21 -122v-692h-152v676q0 66 -21.5 124.5t-61 103t-95.5 70t-125 25.5t-124.5 -23t-94 -64.5t-59.5 -97.5t-21 -122v-692h-151v1122h143v-147q20 45 51.5 77.5
t70.5 53.5t84 31t93 10q61 0 118.5 -15.5t108 -43.5t92 -67t70.5 -87q23 48 64.5 87t92.5 67t108 43.5t112 15.5q80 0 161 -32.5t146.5 -93.5t106.5 -148.5t41 -196.5v-676h-152z" />
    <glyph glyph-name="n" unicode="n" horiz-adv-x="1237" 
d="M958 0v631q0 81 -26 149t-73.5 116.5t-113 75.5t-143.5 27q-75 0 -136.5 -25.5t-105 -70t-67 -106t-23.5 -133.5v-664h-151v1122h143v-164q65 96 152.5 142.5t195.5 46.5q100 0 190.5 -35.5t159.5 -101.5t109.5 -160t40.5 -211v-639h-152z" />
    <glyph glyph-name="o" unicode="o" horiz-adv-x="1335" 
d="M1249 569q0 -79 -20.5 -154t-58 -141t-90.5 -122t-117.5 -96t-139 -62.5t-155.5 -22.5q-120 0 -227 46t-188 125t-128 185t-47 226q0 123 45.5 231t125 189t187 127.5t232.5 46.5q117 0 222 -46.5t185 -125.5t127 -184t47 -222zM1098 569q0 88 -34.5 166t-93 136.5
t-137 93t-165.5 34.5q-94 0 -174 -35t-139 -95.5t-92.5 -142t-33.5 -173.5q0 -89 34.5 -168t94 -138t139.5 -93.5t171 -34.5q92 0 170.5 35t136.5 96t90.5 143t32.5 176z" />
    <glyph glyph-name="p" unicode="p" horiz-adv-x="1384" 
d="M1298 557q0 -126 -48.5 -233.5t-131.5 -185.5t-193 -122.5t-233 -44.5q-62 0 -124.5 14.5t-119 44.5t-103 74.5t-75.5 104.5v-766h-151v1679h143v-192q32 54 83 94.5t111.5 67.5t125.5 41t127 14q58 0 124.5 -14.5t132 -45t125.5 -77.5t106 -112.5t73.5 -150.5t27.5 -190
zM1147 557q0 92 -34.5 172.5t-94 140.5t-139.5 94.5t-170 34.5q-94 0 -176 -32.5t-143 -90t-96.5 -136.5t-35.5 -171q0 -94 34.5 -176t94 -143t139.5 -96t170 -35q94 0 176 33.5t143 92t96.5 138.5t35.5 174z" />
    <glyph glyph-name="q" unicode="q" horiz-adv-x="1384" 
d="M1110 -557v766q-29 -60 -75.5 -104.5t-103.5 -74.5t-120.5 -44.5t-126.5 -14.5q-122 0 -231.5 44.5t-193 122.5t-132.5 185.5t-49 233.5q0 104 28 188.5t74.5 150t107 113t126.5 78.5t132.5 45.5t125.5 14.5q60 0 123.5 -14t123.5 -41t112 -67.5t87 -94.5v192h144v-1679
h-152zM1118 569q0 92 -35 171t-95.5 136.5t-142 90t-173.5 32.5t-173 -34.5t-141 -94.5t-94.5 -140.5t-34.5 -172.5q0 -94 35.5 -174t96.5 -138.5t143 -92t176 -33.5t174 35t138.5 96t92 143t33.5 176z" />
    <glyph glyph-name="r" unicode="r" horiz-adv-x="606" 
d="M586 995q-85 -5 -145 -32t-98 -73t-55.5 -109t-17.5 -138v-643h-151v1122h143v-164q23 51 57.5 86.5t77 57.5t90.5 32.5t99 12.5v-152z" />
    <glyph glyph-name="s" unicode="s" horiz-adv-x="786" 
d="M733 332q0 -80 -27.5 -146.5t-76 -114t-115.5 -74t-145 -26.5q-69 0 -133 28.5t-111.5 78t-74 115t-21.5 139.5h151q-2 -43 14 -81.5t44 -68t66 -46.5t81 -17q42 0 78 14t62.5 39t41.5 59.5t15 75.5q0 51 -18.5 86.5t-49 60t-69.5 40t-80 26.5q-60 17 -113.5 40.5
t-94 59.5t-64 87.5t-23.5 123.5q0 69 25.5 127t70 100t103 65.5t124.5 23.5q63 0 119.5 -24.5t99.5 -65.5t68 -96.5t25 -116.5h-152q0 37 -13.5 65.5t-37.5 48.5t-56 30.5t-69 10.5q-32 0 -60.5 -12t-49.5 -33t-33.5 -49.5t-12.5 -60.5q0 -48 17 -78.5t44.5 -50.5t63 -32.5
t72.5 -23.5q63 -20 120 -45.5t100.5 -63t69 -90.5t25.5 -128z" />
    <glyph glyph-name="t" unicode="t" horiz-adv-x="688" 
d="M401 983v-983h-151v983h-234v139h234v394h151v-394h263v-139h-263z" />
    <glyph glyph-name="u" unicode="u" horiz-adv-x="1233" 
d="M963 0v176q-59 -107 -156 -156t-217 -49q-33 0 -80.5 6.5t-100 26.5t-104.5 55.5t-93 93.5t-67 141t-26 198v630h151v-626q0 -78 22.5 -147t66 -120t107 -80.5t144.5 -29.5q78 0 141.5 29t108.5 79t69.5 118.5t24.5 146.5v630h152v-1122h-143z" />
    <glyph glyph-name="v" unicode="v" horiz-adv-x="1130" 
d="M643 0h-160l-471 1122h164l389 -929l385 929h164z" />
    <glyph glyph-name="w" unicode="w" horiz-adv-x="1700" 
d="M1257 0h-172l-241 741l-234 -741h-176l-422 1122h160l352 -938l254 791h135l254 -791l357 938h159z" />
    <glyph glyph-name="x" unicode="x" horiz-adv-x="979" 
d="M786 0l-299 451l-294 -451h-181l385 569l-385 553h181l294 -434l299 434h177l-385 -553l385 -569h-177z" />
    <glyph glyph-name="y" unicode="y" horiz-adv-x="1090" 
d="M356 -557h-159l245 594l-430 1085h160l360 -893l377 893h164z" />
    <glyph glyph-name="z" unicode="z" horiz-adv-x="1073" 
d="M123 0v135l606 848h-582v139h766v-139l-602 -844h639v-139h-827z" />
    <glyph glyph-name="braceleft" unicode="{" horiz-adv-x="721" 
d="M446 -537q-96 130 -142 270t-46 292l-4 458l-148 144l148 143l4 459q0 152 43 289t133 264l107 -103q-135 -203 -135 -450l-5 -488l-106 -114l106 -103l5 -499q0 -124 36 -237.5t107 -221.5z" />
    <glyph glyph-name="bar" unicode="|" horiz-adv-x="1376" 
d="M623 0v1516h131v-1516h-131z" />
    <glyph glyph-name="braceright" unicode="}" horiz-adv-x="721" 
d="M385 487l-4 -462q0 -158 -49.5 -296.5t-138.5 -265.5l-103 103q71 108 107 221.5t36 237.5v499l107 103l-107 114v488q0 124 -35 236t-100 214l107 103q85 -126 130.5 -261t45.5 -292v-459l151 -143z" />
    <glyph glyph-name="asciitilde" unicode="~" horiz-adv-x="1241" 
d="M1139 705q-23 -42 -52.5 -82.5t-65.5 -72.5t-79 -51.5t-94 -19.5t-108.5 21.5t-117 48t-117 48t-108.5 21.5q-41 0 -72 -17t-55 -44t-43.5 -59.5t-38.5 -63.5l-82 98q23 43 51.5 86.5t63.5 78t78.5 56t97.5 21.5q37 0 77.5 -10.5t82 -26.5t82.5 -34.5t79 -34.5t71 -26.5
t59 -10.5q35 0 65 16t55.5 41t46.5 55.5t38 59.5z" />
    <glyph glyph-name="uni0E00" unicode="&#xe00;" 
 />
    <glyph glyph-name="maiekupperleftthai.alt9" 
d="M-785 2417v516h111v-516h-111z" />
    <glyph glyph-name="maichattawaupperleftthai.alt9" 
d="M-674 2617v-200h-111v200h-200v111h200v205h111v-205h205v-111h-205z" />
    <glyph glyph-name="saraileftthai" 
d="M-434 1618q-89 32 -167 59t-149 48t-137.5 36.5t-132.5 24.5q-84 11 -150.5 17t-126.5 8.5t-119 1t-128 -6.5q26 75 73.5 143.5t116.5 120.5t158.5 82.5t200.5 30.5q118 -2 216 -42.5t170.5 -114t117.5 -177.5t57 -231zM-569 1761q-26 66 -61.5 121t-86 96.5t-118.5 67
t-160 31.5q-60 4 -116.5 -6.5t-105 -33.5t-86.5 -57t-61 -75q55 0 101 -1t89.5 -3t87.5 -6.5t95 -10.5q108 -15 218.5 -45.5t203.5 -77.5z" />
    <glyph glyph-name="saraileftthai" unicode="&#xf701;" 
d="M-434 1618q-89 32 -167 59t-149 48t-137.5 36.5t-132.5 24.5q-84 11 -150.5 17t-126.5 8.5t-119 1t-128 -6.5q26 75 73.5 143.5t116.5 120.5t158.5 82.5t200.5 30.5q118 -2 216 -42.5t170.5 -114t117.5 -177.5t57 -231zM-569 1761q-26 66 -61.5 121t-86 96.5t-118.5 67
t-160 31.5q-60 4 -116.5 -6.5t-105 -33.5t-86.5 -57t-61 -75q55 0 101 -1t89.5 -3t87.5 -6.5t95 -10.5q108 -15 218.5 -45.5t203.5 -77.5z" />
    <glyph glyph-name="saraiileftthai" 
d="M-434 1618q-89 32 -167 59t-149 48t-137.5 36.5t-132.5 24.5q-136 18 -266.5 27t-257.5 -7q24 75 72.5 143.5t118.5 120.5t160 82.5t198 30.5q139 0 251.5 -58t198.5 -175v344h111v-676zM-569 1761q-26 66 -61.5 121t-86 96.5t-118.5 67t-160 31.5q-60 4 -116.5 -6.5
t-105 -33.5t-86.5 -57t-61 -75q55 0 101 -1t89.5 -3t87.5 -6.5t95 -10.5q108 -15 218.5 -45.5t203.5 -77.5z" />
    <glyph glyph-name="saraiileftthai" unicode="&#xf702;" 
d="M-434 1618q-89 32 -167 59t-149 48t-137.5 36.5t-132.5 24.5q-136 18 -266.5 27t-257.5 -7q24 75 72.5 143.5t118.5 120.5t160 82.5t198 30.5q139 0 251.5 -58t198.5 -175v344h111v-676zM-569 1761q-26 66 -61.5 121t-86 96.5t-118.5 67t-160 31.5q-60 4 -116.5 -6.5
t-105 -33.5t-86.5 -57t-61 -75q55 0 101 -1t89.5 -3t87.5 -6.5t95 -10.5q108 -15 218.5 -45.5t203.5 -77.5z" />
    <glyph glyph-name="saraueleftthai" 
d="M-434 1618q-89 32 -167 59t-149 48t-137.5 36.5t-132.5 24.5q-136 18 -266.5 27t-257.5 -7q26 75 73.5 143.5t116.5 120.5t158.5 82.5t200.5 30.5q24 0 45.5 -2.5t37.5 -5t25.5 -4.5t9.5 0q-3 13 -2.5 35.5t7.5 48.5t21 52.5t38 48t58.5 35t82.5 13.5q49 0 87 -16
t64.5 -43.5t40 -64.5t13.5 -80q0 -65 -34 -116t-93 -73q39 -39 66 -86t46 -98t30 -104.5t18 -104.5zM-672 2101q33 0 54.5 15t32.5 37t11 48.5t-11 48.5t-32.5 37t-54.5 15q-34 0 -56.5 -15t-33.5 -37t-11 -48.5t11 -48.5t33.5 -37t56.5 -15zM-569 1761q-26 66 -61.5 121
t-86 96.5t-118.5 67t-160 31.5q-60 4 -116.5 -6.5t-105 -33.5t-86.5 -57t-61 -75q55 0 101 -1t89.5 -3t87.5 -6.5t95 -10.5q108 -15 218.5 -45.5t203.5 -77.5z" />
    <glyph glyph-name="saraueleftthai" unicode="&#xf703;" 
d="M-434 1618q-89 32 -167 59t-149 48t-137.5 36.5t-132.5 24.5q-136 18 -266.5 27t-257.5 -7q26 75 73.5 143.5t116.5 120.5t158.5 82.5t200.5 30.5q24 0 45.5 -2.5t37.5 -5t25.5 -4.5t9.5 0q-3 13 -2.5 35.5t7.5 48.5t21 52.5t38 48t58.5 35t82.5 13.5q49 0 87 -16
t64.5 -43.5t40 -64.5t13.5 -80q0 -65 -34 -116t-93 -73q39 -39 66 -86t46 -98t30 -104.5t18 -104.5zM-672 2101q33 0 54.5 15t32.5 37t11 48.5t-11 48.5t-32.5 37t-54.5 15q-34 0 -56.5 -15t-33.5 -37t-11 -48.5t11 -48.5t33.5 -37t56.5 -15zM-569 1761q-26 66 -61.5 121
t-86 96.5t-118.5 67t-160 31.5q-60 4 -116.5 -6.5t-105 -33.5t-86.5 -57t-61 -75q55 0 101 -1t89.5 -3t87.5 -6.5t95 -10.5q108 -15 218.5 -45.5t203.5 -77.5z" />
    <glyph glyph-name="saraueeleftthai" 
d="M-434 1618q-89 32 -167 59t-149 48t-137.5 36.5t-132.5 24.5q-136 18 -266.5 27t-257.5 -7q26 75 73.5 143.5t116.5 120.5t158.5 82.5t200.5 30.5q40 0 85 -6.5t95 -22.5v140h110v-189q47 -34 86.5 -71.5t73.5 -83.5v344h111v-676zM-569 1761q-26 66 -61.5 121t-86 96.5
t-118.5 67t-160 31.5q-60 4 -116.5 -6.5t-105 -33.5t-86.5 -57t-61 -75q55 0 101 -1t89.5 -3t87.5 -6.5t95 -10.5q108 -15 218.5 -45.5t203.5 -77.5z" />
    <glyph glyph-name="saraueeleftthai" unicode="&#xf704;" 
d="M-434 1618q-89 32 -167 59t-149 48t-137.5 36.5t-132.5 24.5q-136 18 -266.5 27t-257.5 -7q26 75 73.5 143.5t116.5 120.5t158.5 82.5t200.5 30.5q40 0 85 -6.5t95 -22.5v140h110v-189q47 -34 86.5 -71.5t73.5 -83.5v344h111v-676zM-569 1761q-26 66 -61.5 121t-86 96.5
t-118.5 67t-160 31.5q-60 4 -116.5 -6.5t-105 -33.5t-86.5 -57t-61 -75q55 0 101 -1t89.5 -3t87.5 -6.5t95 -10.5q108 -15 218.5 -45.5t203.5 -77.5z" />
    <glyph glyph-name="maieklowleftthai" 
d="M-684 1651v688h119v-688h-119z" />
    <glyph glyph-name="maieklowleftthai" unicode="&#xf705;" 
d="M-684 1651v688h119v-688h-119z" />
    <glyph glyph-name="maitholowleftthai" 
d="M-340 2179q-18 -106 -62 -194.5t-109 -155t-149 -110t-184 -60.5q-46 -9 -90 -10t-90 2v102q31 28 59 55t43 64q-9 -6 -23.5 -7t-21.5 -1q-61 0 -102 27.5t-61.5 68t-20.5 88.5t20.5 88.5t61.5 68t102 27.5q46 0 78.5 -13.5t54 -33.5t33.5 -43.5t18 -44t7.5 -34.5
t1.5 -15q0 -38 -5 -80t-17 -82t-32 -73.5t-49 -55.5q88 14 163.5 54t132.5 99.5t93.5 135.5t45.5 162zM-967 1958q30 0 49.5 13.5t29.5 33.5t10 43t-10 43t-29.5 33.5t-49.5 13.5t-49.5 -13.5t-29 -33.5t-10 -43t9.5 -43t29.5 -33.5t49.5 -13.5z" />
    <glyph glyph-name="maitholowleftthai" unicode="&#xf706;" 
d="M-340 2179q-18 -106 -62 -194.5t-109 -155t-149 -110t-184 -60.5q-46 -9 -90 -10t-90 2v102q31 28 59 55t43 64q-9 -6 -23.5 -7t-21.5 -1q-61 0 -102 27.5t-61.5 68t-20.5 88.5t20.5 88.5t61.5 68t102 27.5q46 0 78.5 -13.5t54 -33.5t33.5 -43.5t18 -44t7.5 -34.5
t1.5 -15q0 -38 -5 -80t-17 -82t-32 -73.5t-49 -55.5q88 14 163.5 54t132.5 99.5t93.5 135.5t45.5 162zM-967 1958q30 0 49.5 13.5t29.5 33.5t10 43t-10 43t-29.5 33.5t-49.5 13.5t-49.5 -13.5t-29 -33.5t-10 -43t9.5 -43t29.5 -33.5t49.5 -13.5z" />
    <glyph glyph-name="maitrilowleftthai" 
d="M-598 1651h-115l103 213q17 38 21.5 81t-7 79.5t-40 60.5t-77.5 24q-21 0 -44 -10t-44 -25.5t-39 -33.5t-28 -33q-28 37 -69 65.5t-87 28.5q-27 0 -48.5 -13t-37 -34t-25.5 -47.5t-12.5 -53.5t2.5 -51.5t19 -41.5q24 40 58 63t81 23q51 0 84 -22t49 -55.5t14.5 -72
t-18.5 -72t-49.5 -55.5t-79.5 -22q-60 0 -108.5 24.5t-82 66t-51.5 94.5t-16 110q0 49 12 97t36.5 86t63.5 61.5t93 25.5q34 0 58 -6.5t43 -17.5t35.5 -26t35.5 -32q18 15 35.5 30t37 26.5t41.5 18.5t49 7q84 0 134 -40.5t71 -111.5l90 176l91 -41zM-991 1720q25 0 42 11.5
t25.5 28t8.5 36.5t-8.5 36.5t-25.5 28t-42 11.5t-41.5 -11.5t-24.5 -28t-8 -36.5t8 -36.5t24.5 -28t41.5 -11.5z" />
    <glyph glyph-name="maitrilowleftthai" unicode="&#xf707;" 
d="M-598 1651h-115l103 213q17 38 21.5 81t-7 79.5t-40 60.5t-77.5 24q-21 0 -44 -10t-44 -25.5t-39 -33.5t-28 -33q-28 37 -69 65.5t-87 28.5q-27 0 -48.5 -13t-37 -34t-25.5 -47.5t-12.5 -53.5t2.5 -51.5t19 -41.5q24 40 58 63t81 23q51 0 84 -22t49 -55.5t14.5 -72
t-18.5 -72t-49.5 -55.5t-79.5 -22q-60 0 -108.5 24.5t-82 66t-51.5 94.5t-16 110q0 49 12 97t36.5 86t63.5 61.5t93 25.5q34 0 58 -6.5t43 -17.5t35.5 -26t35.5 -32q18 15 35.5 30t37 26.5t41.5 18.5t49 7q84 0 134 -40.5t71 -111.5l90 176l91 -41zM-991 1720q25 0 42 11.5
t25.5 28t8.5 36.5t-8.5 36.5t-25.5 28t-42 11.5t-41.5 -11.5t-24.5 -28t-8 -36.5t8 -36.5t24.5 -28t41.5 -11.5z" />
    <glyph glyph-name="maichattawalowleftthai" 
d="M-680 1954v-303h-119v303h-303v119h303v299h119v-299h299v-119h-299z" />
    <glyph glyph-name="maichattawalowleftthai" unicode="&#xf708;" 
d="M-680 1954v-303h-119v303h-303v119h303v299h119v-299h299v-119h-299z" />
    <glyph glyph-name="thanthakhatlowleftthai" 
d="M-582 2126q33 -25 53.5 -62t27 -79t-2 -84t-33 -76t-66.5 -55t-102 -21q-49 0 -86.5 17t-62.5 46t-38 66.5t-13 79.5q0 65 31 112.5t96 75.5l594 283l57 -94zM-705 1855q34 0 56.5 14.5t34 36.5t11.5 47.5t-11.5 47.5t-34 36.5t-56.5 14.5q-33 0 -54.5 -14.5t-32.5 -36.5
t-11 -47.5t11 -47.5t32.5 -36.5t54.5 -14.5z" />
    <glyph glyph-name="thanthakhatlowleftthai" unicode="&#xf709;" 
d="M-582 2126q33 -25 53.5 -62t27 -79t-2 -84t-33 -76t-66.5 -55t-102 -21q-49 0 -86.5 17t-62.5 46t-38 66.5t-13 79.5q0 65 31 112.5t96 75.5l594 283l57 -94zM-705 1855q34 0 56.5 14.5t34 36.5t11.5 47.5t-11.5 47.5t-34 36.5t-56.5 14.5q-33 0 -54.5 -14.5t-32.5 -36.5
t-11 -47.5t11 -47.5t32.5 -36.5t54.5 -14.5z" />
    <glyph glyph-name="maieklowrightthai" 
d="M-315 1651v680h118v-680h-118z" />
    <glyph glyph-name="maieklowrightthai" unicode="&#xf70a;" 
d="M-315 1651v680h118v-680h-118z" />
    <glyph glyph-name="maitholowrightthai" 
d="M-70 2236q-18 -115 -67 -214t-122.5 -175t-168 -125.5t-203.5 -66.5q-49 -10 -98 -10.5t-98 6.5v110q37 31 64.5 63t45.5 72q-15 -6 -29 -7t-20 -1q-69 0 -114.5 30t-68.5 75t-23 98t23 98t68.5 75t114.5 30q49 0 84 -14t58.5 -35t37.5 -45.5t21.5 -47t9.5 -39t2 -20.5
q0 -93 -26.5 -179.5t-88.5 -148.5q97 26 180.5 70.5t147 107.5t103.5 143.5t49 178.5zM-766 1991q33 0 54.5 15t32.5 37t11 48t-11 48t-32.5 37t-54.5 15t-54.5 -15t-32.5 -37t-11 -48t11 -48t32.5 -37t54.5 -15z" />
    <glyph glyph-name="maitholowrightthai" unicode="&#xf70b;" 
d="M-70 2236q-18 -115 -67 -214t-122.5 -175t-168 -125.5t-203.5 -66.5q-49 -10 -98 -10.5t-98 6.5v110q37 31 64.5 63t45.5 72q-15 -6 -29 -7t-20 -1q-69 0 -114.5 30t-68.5 75t-23 98t23 98t68.5 75t114.5 30q49 0 84 -14t58.5 -35t37.5 -45.5t21.5 -47t9.5 -39t2 -20.5
q0 -93 -26.5 -179.5t-88.5 -148.5q97 26 180.5 70.5t147 107.5t103.5 143.5t49 178.5zM-766 1991q33 0 54.5 15t32.5 37t11 48t-11 48t-32.5 37t-54.5 15t-54.5 -15t-32.5 -37t-11 -48t11 -48t32.5 -37t54.5 -15z" />
    <glyph glyph-name="maitrilowrightthai" 
d="M-365 1651h-122l110 221q17 38 21 84t-8.5 85.5t-42 66t-80.5 26.5q-25 0 -48 -11t-43.5 -27t-39 -34.5l-33.5 -33.5q-15 18 -33.5 36t-39.5 31.5t-44 22t-47 8.5q-43 0 -74 -30t-46 -71.5t-12.5 -85t25.5 -71.5q22 49 63.5 69.5t84.5 20.5q54 0 88.5 -23t50.5 -57.5
t14 -75t-20.5 -75t-53 -57.5t-83.5 -23q-60 0 -110.5 25.5t-86.5 68.5t-56 99t-18 118q2 54 15 104t39 89t66.5 63.5t97.5 26.5q46 1 80.5 -12t57 -30t33 -31t9.5 -14q14 19 34.5 35t43.5 27.5t47.5 18t46.5 6.5q86 0 140.5 -44.5t76.5 -115.5l94 184l98 -41zM-778 1724
q40 0 59.5 25t19.5 55t-19.5 55t-59.5 25q-42 0 -62.5 -25t-20.5 -55t20.5 -55t62.5 -25z" />
    <glyph glyph-name="maitrilowrightthai" unicode="&#xf70c;" 
d="M-365 1651h-122l110 221q17 38 21 84t-8.5 85.5t-42 66t-80.5 26.5q-25 0 -48 -11t-43.5 -27t-39 -34.5l-33.5 -33.5q-15 18 -33.5 36t-39.5 31.5t-44 22t-47 8.5q-43 0 -74 -30t-46 -71.5t-12.5 -85t25.5 -71.5q22 49 63.5 69.5t84.5 20.5q54 0 88.5 -23t50.5 -57.5
t14 -75t-20.5 -75t-53 -57.5t-83.5 -23q-60 0 -110.5 25.5t-86.5 68.5t-56 99t-18 118q2 54 15 104t39 89t66.5 63.5t97.5 26.5q46 1 80.5 -12t57 -30t33 -31t9.5 -14q14 19 34.5 35t43.5 27.5t47.5 18t46.5 6.5q86 0 140.5 -44.5t76.5 -115.5l94 184l98 -41zM-778 1724
q40 0 59.5 25t19.5 55t-19.5 55t-59.5 25q-42 0 -62.5 -25t-20.5 -55t20.5 -55t62.5 -25z" />
    <glyph glyph-name="maichattawalowrightthai" 
d="M-369 1954v-303h-118v303h-304v119h304v299h118v-299h299v-119h-299z" />
    <glyph glyph-name="maichattawalowrightthai" unicode="&#xf70d;" 
d="M-369 1954v-303h-118v303h-304v119h304v299h118v-299h299v-119h-299z" />
    <glyph glyph-name="thanthakhatlowrightthai" 
d="M-455 2040q34 -26 54.5 -63.5t26 -79t-4 -82.5t-35 -74t-67.5 -53.5t-101 -20.5q-48 0 -85 16.5t-62.5 45t-39 66.5t-13.5 81q0 65 34 113t93 75l598 283l57 -94zM-578 1769q33 0 55 14.5t33 36.5t11 47.5t-11 47.5t-33 36.5t-55 14.5t-54.5 -14.5t-32.5 -36.5t-11 -47.5
t11 -47.5t32.5 -36.5t54.5 -14.5z" />
    <glyph glyph-name="thanthakhatlowrightthai" unicode="&#xf70e;" 
d="M-455 2040q34 -26 54.5 -63.5t26 -79t-4 -82.5t-35 -74t-67.5 -53.5t-101 -20.5q-48 0 -85 16.5t-62.5 45t-39 66.5t-13.5 81q0 65 34 113t93 75l598 283l57 -94zM-578 1769q33 0 55 14.5t33 36.5t11 47.5t-11 47.5t-33 36.5t-55 14.5t-54.5 -14.5t-32.5 -36.5t-11 -47.5
t11 -47.5t32.5 -36.5t54.5 -14.5z" />
    <glyph glyph-name="maihanakatleftthai" 
d="M-49 2081l106 -41q-37 -91 -93.5 -163t-127.5 -124t-153.5 -84.5t-170.5 -45.5t-179.5 -6t-180.5 34q-51 15 -87 40t-59.5 56t-34.5 65t-11 68q0 43 16 80.5t43.5 65t64.5 43.5t80 16t80.5 -16t65 -43.5t43.5 -65t16 -80.5t-15 -81.5t-46 -65.5q115 -11 216 4.5
t183.5 58.5t144.5 114t99 171zM-831 1978q-34 0 -56.5 -14.5t-34.5 -36.5t-12.5 -47t10 -47t31.5 -36.5t53 -14.5q33 0 55.5 13.5t35 34.5t14 45.5t-8.5 46.5t-31.5 37.5t-55.5 18.5z" />
    <glyph glyph-name="maihanakatleftthai" unicode="&#xf710;" 
d="M-49 2081l106 -41q-37 -91 -93.5 -163t-127.5 -124t-153.5 -84.5t-170.5 -45.5t-179.5 -6t-180.5 34q-51 15 -87 40t-59.5 56t-34.5 65t-11 68q0 43 16 80.5t43.5 65t64.5 43.5t80 16t80.5 -16t65 -43.5t43.5 -65t16 -80.5t-15 -81.5t-46 -65.5q115 -11 216 4.5
t183.5 58.5t144.5 114t99 171zM-831 1978q-34 0 -56.5 -14.5t-34.5 -36.5t-12.5 -47t10 -47t31.5 -36.5t53 -14.5q33 0 55.5 13.5t35 34.5t14 45.5t-8.5 46.5t-31.5 37.5t-55.5 18.5z" />
    <glyph glyph-name="nikhahitleftthai" 
d="M-709 1638q-69 0 -114.5 30t-68 75t-23 98t22.5 98t68.5 75t114.5 30t114.5 -30t68.5 -75t23 -98t-23 -98t-68.5 -75t-114.5 -30zM-709 1741q34 0 56.5 15t34 37t11.5 48.5t-11.5 48.5t-34 37t-56.5 15q-33 0 -54.5 -15t-32.5 -37t-11 -48.5t11 -48.5t32.5 -37t54.5 -15z
" />
    <glyph glyph-name="nikhahitleftthai" unicode="&#xf711;" 
d="M-709 1638q-69 0 -114.5 30t-68 75t-23 98t22.5 98t68.5 75t114.5 30t114.5 -30t68.5 -75t23 -98t-23 -98t-68.5 -75t-114.5 -30zM-709 1741q34 0 56.5 15t34 37t11.5 48.5t-11.5 48.5t-34 37t-56.5 15q-33 0 -54.5 -15t-32.5 -37t-11 -48.5t11 -48.5t32.5 -37t54.5 -15z
" />
    <glyph glyph-name="maitaikhuleftthai" 
d="M-373 2154q-15 -37 -40.5 -64.5t-57 -46t-68.5 -27.5t-75 -9h-463q-37 0 -70.5 -12.5t-59 -34.5t-40.5 -52t-15 -65q0 -62 25.5 -106.5t81.5 -69.5q34 50 66 95.5t69 88.5q17 -26 37.5 -59t45.5 -62.5t53.5 -50t60.5 -20.5q-3 37 5.5 71.5t27.5 61.5t48.5 43t69.5 16
q51 0 86 -22.5t53 -56.5t18.5 -74t-17 -75t-53.5 -59.5t-91 -27.5q-111 -6 -199.5 34t-144.5 130l-115 -164q-38 0 -80.5 22.5t-78 63.5t-59 97t-23.5 124q0 60 24 110.5t65.5 87t95.5 57t114 20.5h463q23 0 45 3t41.5 12.5t37 27.5t31.5 47zM-672 1606q29 0 48 12.5
t28.5 32t9.5 41.5t-9.5 41.5t-28.5 32t-48 12.5q-28 0 -46 -12.5t-27.5 -32t-9 -41.5t9.5 -41.5t27.5 -32t45.5 -12.5z" />
    <glyph glyph-name="maitaikhuleftthai" unicode="&#xf712;" 
d="M-373 2154q-15 -37 -40.5 -64.5t-57 -46t-68.5 -27.5t-75 -9h-463q-37 0 -70.5 -12.5t-59 -34.5t-40.5 -52t-15 -65q0 -62 25.5 -106.5t81.5 -69.5q34 50 66 95.5t69 88.5q17 -26 37.5 -59t45.5 -62.5t53.5 -50t60.5 -20.5q-3 37 5.5 71.5t27.5 61.5t48.5 43t69.5 16
q51 0 86 -22.5t53 -56.5t18.5 -74t-17 -75t-53.5 -59.5t-91 -27.5q-111 -6 -199.5 34t-144.5 130l-115 -164q-38 0 -80.5 22.5t-78 63.5t-59 97t-23.5 124q0 60 24 110.5t65.5 87t95.5 57t114 20.5h463q23 0 45 3t41.5 12.5t37 27.5t31.5 47zM-672 1606q29 0 48 12.5
t28.5 32t9.5 41.5t-9.5 41.5t-28.5 32t-48 12.5q-28 0 -46 -12.5t-27.5 -32t-9 -41.5t9.5 -41.5t27.5 -32t45.5 -12.5z" />
    <glyph glyph-name="maiekupperleftthai" 
d="M-545 2417v516h111v-516h-111z" />
    <glyph glyph-name="maiekupperleftthai" unicode="&#xf713;" 
d="M-545 2417v516h111v-516h-111z" />
    <glyph glyph-name="maithoupperleftthai" 
d="M-151 2933q-29 -126 -90.5 -228.5t-149.5 -172.5t-200.5 -104.5t-243.5 -23.5v103q75 42 107 119q-16 -7 -29.5 -8t-19.5 -1q-61 0 -101 27.5t-60.5 68.5t-20 88.5t20.5 88.5t60.5 68.5t100.5 27.5q46 0 78 -13.5t53.5 -33.5t33.5 -43.5t18 -44t7.5 -34.5t1.5 -15
q0 -39 -5.5 -81.5t-17.5 -83t-31.5 -75t-47.5 -55.5q89 20 163.5 59.5t131 96.5t91.5 131t44 163zM-777 2712q45 0 67 27.5t22 60.5t-22 60.5t-67 27.5t-67 -27.5t-22 -60.5t22 -60.5t67 -27.5z" />
    <glyph glyph-name="maithoupperleftthai" unicode="&#xf714;" 
d="M-151 2933q-29 -126 -90.5 -228.5t-149.5 -172.5t-200.5 -104.5t-243.5 -23.5v103q75 42 107 119q-16 -7 -29.5 -8t-19.5 -1q-61 0 -101 27.5t-60.5 68.5t-20 88.5t20.5 88.5t60.5 68.5t100.5 27.5q46 0 78 -13.5t53.5 -33.5t33.5 -43.5t18 -44t7.5 -34.5t1.5 -15
q0 -39 -5.5 -81.5t-17.5 -83t-31.5 -75t-47.5 -55.5q89 20 163.5 59.5t131 96.5t91.5 131t44 163zM-777 2712q45 0 67 27.5t22 60.5t-22 60.5t-67 27.5t-67 -27.5t-22 -60.5t22 -60.5t67 -27.5z" />
    <glyph glyph-name="maitriupperleftthai" 
d="M-475 2466h-107l95 200q17 37 21 78.5t-7.5 76t-39 57t-73.5 22.5q-21 0 -40.5 -11t-37 -26t-34 -31t-31.5 -26q-2 0 -14 13.5t-32.5 29.5t-47.5 29.5t-58 13.5q-38 0 -64.5 -26.5t-39 -63.5t-10.5 -76t20 -64q25 41 56.5 61.5t74.5 20.5q50 0 81.5 -21t46 -52t12 -68
t-19.5 -68t-48.5 -52t-75.5 -21q-54 0 -99 23.5t-77 62.5t-50 90t-16 106q2 48 14 92.5t35.5 79t59 55.5t84.5 23q42 0 72.5 -11.5t51.5 -25.5t31.5 -25.5t12.5 -11.5q31 31 71 52.5t80 21.5q78 0 126.5 -38.5t70.5 -100.5l86 168l86 -41zM-848 2531q35 0 52.5 22.5
t17.5 49.5t-17.5 49.5t-52.5 22.5t-53 -22.5t-18 -49.5t18 -49.5t53 -22.5z" />
    <glyph glyph-name="maitriupperleftthai" unicode="&#xf715;" 
d="M-475 2466h-107l95 200q17 37 21 78.5t-7.5 76t-39 57t-73.5 22.5q-21 0 -40.5 -11t-37 -26t-34 -31t-31.5 -26q-2 0 -14 13.5t-32.5 29.5t-47.5 29.5t-58 13.5q-38 0 -64.5 -26.5t-39 -63.5t-10.5 -76t20 -64q25 41 56.5 61.5t74.5 20.5q50 0 81.5 -21t46 -52t12 -68
t-19.5 -68t-48.5 -52t-75.5 -21q-54 0 -99 23.5t-77 62.5t-50 90t-16 106q2 48 14 92.5t35.5 79t59 55.5t84.5 23q42 0 72.5 -11.5t51.5 -25.5t31.5 -25.5t12.5 -11.5q31 31 71 52.5t80 21.5q78 0 126.5 -38.5t70.5 -100.5l86 168l86 -41zM-848 2531q35 0 52.5 22.5
t17.5 49.5t-17.5 49.5t-52.5 22.5t-53 -22.5t-18 -49.5t18 -49.5t53 -22.5z" />
    <glyph glyph-name="maichattawaupperleftthai" 
d="M-434 2617v-200h-111v200h-200v111h200v205h111v-205h205v-111h-205z" />
    <glyph glyph-name="maichattawaupperleftthai" unicode="&#xf716;" 
d="M-434 2617v-200h-111v200h-200v111h200v205h111v-205h205v-111h-205z" />
    <glyph glyph-name="thanthakhatupperleftthai" 
d="M-377 2736q27 -22 44.5 -55.5t23.5 -71t0 -75.5t-27.5 -69t-58.5 -50t-92 -19q-43 0 -76.5 15.5t-57 42t-35.5 60.5t-12 71q0 117 115 172l537 254l57 -86zM-483 2490q29 0 49 13.5t30 33.5t9.5 43.5t-10 43.5t-29.5 33.5t-49 13.5q-30 0 -49.5 -13.5t-29.5 -33.5
t-10 -43.5t10 -43.5t29.5 -33.5t49.5 -13.5z" />
    <glyph glyph-name="thanthakhatupperleftthai" unicode="&#xf717;" 
d="M-377 2736q27 -22 44.5 -55.5t23.5 -71t0 -75.5t-27.5 -69t-58.5 -50t-92 -19q-43 0 -76.5 15.5t-57 42t-35.5 60.5t-12 71q0 117 115 172l537 254l57 -86zM-483 2490q29 0 49 13.5t30 33.5t9.5 43.5t-10 43.5t-29.5 33.5t-49 13.5q-30 0 -49.5 -13.5t-29.5 -33.5
t-10 -43.5t10 -43.5t29.5 -33.5t49.5 -13.5z" />
    </font>
</defs>
</svg>
