<svg xmlns="http://www.w3.org/2000/svg">
<defs>
<font id="DBPatPongX" horiz-adv-x="0" >
  <font-face 
    font-family="DB PatPong X"
    font-weight="400"
    font-stretch="normal"
    units-per-em="4096"
    panose-1="2 0 5 6 6 0 0 2 0 4"
    ascent="3276"
    descent="-820"
    x-height="2339"
    cap-height="3060"
    bbox="-1167.4 -1008 3891 3502"
    underline-thickness="143"
    underline-position="-390"
    unicode-range="U+0020-F882"
  />
<missing-glyph horiz-adv-x="1696" 
d="M1729 1638v-57h24q29 0 29 37q0 3 -6.5 11.5t-22.5 8.5h-24zM1741 1577h-12v-57h-21v139h45q49 0 49 -41q0 -28 -12.5 -34.5t-28.5 -6.5l41 -57h-20zM1753 1499q26 0 43.5 8t28 20.5t14.5 27t4 26.5q0 46 -21.5 72t-68.5 26q-46 0 -70 -26t-24 -72q0 -34 22.5 -58
t71.5 -24zM1753 1692q53 0 77.5 -32.5t24.5 -78.5q0 -17 -6 -33.5t-18.5 -30t-32 -22t-45.5 -8.5q-24 0 -44 8.5t-33.5 22t-21 30t-7.5 33.5q0 46 28.5 78.5t77.5 32.5zM823 1294q43 -3 98 -9t114 -15t118.5 -20.5t112 -25.5t94 -30t65.5 -35q-41 81 -107 144.5t-146.5 107
t-171 66t-181.5 22.5q-69 0 -136 -13t-128.5 -40t-115 -68t-95.5 -96q74 9 147.5 12.5t147.5 3.5q46 0 92 -0.5t92 -3.5zM1536 1618v-582q-98 31 -211.5 58t-238.5 47t-259 31.5t-274 11.5q-99 0 -194 -6t-191 -19q24 92 78 175.5t135.5 146.5t189.5 100t240 37
q127 0 229.5 -28.5t179 -70.5t128 -89.5t77.5 -86.5q0 -3 -0.5 11t-0.5 38t-1 55t-1 62.5t-0.5 60t-0.5 48.5h115zM627 520q0 34 -22.5 50t-47.5 16q-28 0 -49 -16t-21 -50t21 -47.5t49 -13.5q12 0 24.5 3t22.5 10.5t16.5 19t6.5 28.5zM131 569q0 95 37.5 168t98.5 122
t139 74t159 25t157.5 -22t135 -67.5t94 -115.5t35.5 -167v-475h434v827h115v-934h-774v107h119v487q0 61 -24 107.5t-66 77t-99 46t-123 15.5q-61 0 -118.5 -17.5t-102 -50.5t-71.5 -81t-27 -109v-439l237 238q-11 4 -25.5 14.5t-28 27t-23 39.5t-9.5 54q0 74 45 117t119 43
q35 0 64 -13t49.5 -35t31.5 -51t11 -61q0 -29 -6.5 -51t-16.5 -38t-20.5 -27t-18.5 -19q-5 -5 -23.5 -22.5t-46.5 -44.5t-62.5 -60.5t-71.5 -69.5q-44 -40 -92 -85.5t-101 -98.5h-131v565z" />
    <glyph glyph-name="ellipsis" unicode="&#x2e;&#x2e;&#x2e;" horiz-adv-x="1974" 
d="M1413 0v307h303v-307h-303zM836 0v307h303v-307h-303zM254 0v307h307v-307h-307z" />
    <glyph glyph-name="dochadaphinthuthai" unicode="&#xe0e;&#xe3a;" horiz-adv-x="1184" 
d="M766 -348l-332 180l-332 -180v237l332 181l332 -181v2016q0 60 -9 99t-29.5 62.5t-53 33t-80.5 9.5h-176v-1904h-316v2142q1 1 24.5 1.5t62 1.5t88.5 1t104.5 1t109.5 1.5t103 1.5q61 0 121 -6.5t114.5 -24t100.5 -48t79.5 -79t52.5 -116.5t19 -160v-2269h-315zM922 -848
q-61 0 -101 27.5t-60 68.5t-20.5 88.5t20 88.5t60.5 68.5t101 27.5t102 -27.5t61.5 -68.5t20.5 -88.5t-20.5 -88.5t-61.5 -68.5t-102 -27.5z" />
    <glyph glyph-name="topatakphintuthai" unicode="&#xe0f;&#xe3a;" horiz-adv-x="1184" 
d="M766 -348l-221 196l-221 -204l-222 196v246l222 -197l221 197l221 -197v2016q0 60 -9 99t-29.5 62.5t-53 33t-80.5 9.5h-176v-1904h-316v2142q1 1 24.5 1.5t62 1.5t88.5 1t104.5 1t109.5 1.5t103 1.5q61 0 121 -6.5t114.5 -24t100.5 -48t79.5 -79t52.5 -116.5t19 -160
v-2269h-315zM922 -848q-61 0 -101 27.5t-60 68.5t-20.5 88.5t20 88.5t60.5 68.5t101 27.5t102 -27.5t61.5 -68.5t20.5 -88.5t-20.5 -88.5t-61.5 -68.5t-102 -27.5z" />
    <glyph glyph-name="dochadasarauthai" unicode="&#xe0e;&#xe38;" horiz-adv-x="1184" 
d="M766 -348l-332 180l-332 -180v237l332 181l332 -181v2016q0 60 -9 99t-29.5 62.5t-53 33t-80.5 9.5h-176v-1904h-316v2142q1 1 24.5 1.5t62 1.5t88.5 1t104.5 1t109.5 1.5t103 1.5q61 0 121 -6.5t114.5 -24t100.5 -48t79.5 -79t52.5 -116.5t19 -160v-2269h-315zM791 -913
v221h-177v205h467v-426h-290z" />
    <glyph glyph-name="topataksarauthai" unicode="&#xe0f;&#xe38;" horiz-adv-x="1184" 
d="M766 -348l-221 196l-221 -204l-222 196v246l222 -197l221 197l221 -197v2016q0 60 -9 99t-29.5 62.5t-53 33t-80.5 9.5h-176v-1904h-316v2142q1 1 24.5 1.5t62 1.5t88.5 1t104.5 1t109.5 1.5t103 1.5q61 0 121 -6.5t114.5 -24t100.5 -48t79.5 -79t52.5 -116.5t19 -160
v-2269h-315zM791 -913v221h-177v205h467v-426h-290z" />
    <glyph glyph-name="fongmanfunnuthai" unicode="&#xe4f;&#x22;" horiz-adv-x="2048" 
d="M1380 1847h-233l160 795h331zM901 1847h-233l159 795h332zM1901 852q0 -120 -31.5 -231.5t-89 -209t-138 -178t-178 -138t-209 -89t-231.5 -31.5t-231.5 31.5t-209 89t-178 138t-138 178t-89 209t-31.5 231.5q0 119 31.5 229.5t89 207.5t138 177t177.5 137.5t207.5 89
t229.5 31.5q122 0 234.5 -31.5t210.5 -89t178.5 -137.5t137.5 -177t88.5 -207.5t31.5 -229.5zM1647 852q0 86 -22.5 165.5t-63.5 149t-98 126t-126.5 97t-148.5 63t-164 22.5q-129 0 -242.5 -49t-198 -133.5t-133.5 -198t-49 -242.5q0 -86 22 -165.5t62.5 -149t97.5 -126
t125.5 -97t147.5 -63t164 -22.5q86 0 165.5 22.5t148.5 63t126 97t97.5 126t62.5 149t22 165.5h5zM1507 852q0 -98 -38.5 -186t-104.5 -154t-154 -104.5t-186 -38.5q-101 0 -190 38.5t-155 104.5t-104 154t-38 186t38.5 186t104.5 154t154 104.5t186 38.5q103 0 191 -38.5
t153 -104.5t102 -154t37 -186h4zM1348 852q0 67 -26 126.5t-70 103t-103 69t-125 25.5q-68 0 -127.5 -25.5t-104 -69t-70.5 -103t-26 -126.5q0 -68 26 -127t70 -102.5t103 -69t125 -25.5q67 0 126 25.5t103 69t69 102.5t25 127h5z" />
    <glyph glyph-name="lessequal" unicode="&#x3c;&#x3d;" horiz-adv-x="1397" 
d="M717 1679l532 -1015h-278l-676 1015l676 1012h278zM233 1561l861 -1319h-238l-786 1093z" />
    <glyph glyph-name="greaterequal" unicode="&#x3e;&#x3d;" horiz-adv-x="1397" 
d="M143 2691h279l676 -1012l-676 -1015h-279l533 1015zM1323 1335l-786 -1093h-238l860 1319z" />
    <glyph glyph-name="plusminus" unicode="&#x2b;&#x2d;" horiz-adv-x="1397" 
d="M840 1036v-450h-291v450h-422v291h422v393h291v-393h422v-291h-422zM1262 373v-291h-1135v291h1135z" />
    <glyph glyph-name="dochadasarauuthai" unicode="&#xe0e;&#xe39;" horiz-adv-x="1184" 
d="M766 -348l-332 180l-332 -180v237l332 181l332 -181v2016q0 60 -9 99t-29.5 62.5t-53 33t-80.5 9.5h-176v-1904h-316v2142q1 1 24.5 1.5t62 1.5t88.5 1t104.5 1t109.5 1.5t103 1.5q61 0 121 -6.5t114.5 -24t100.5 -48t79.5 -79t52.5 -116.5t19 -160v-2269h-315z
M1081 -737q0 -35 -16.5 -61.5t-44.5 -46t-64.5 -33t-77 -21t-82 -11t-79.5 -3.5q-39 0 -80.5 1.5t-81.5 7.5t-76.5 17.5t-64.5 31t-45.5 48.5t-20.5 70l-4 41l-147 4v205h426v-164q0 -17 7.5 -28t20.5 -18t29 -9.5t33 -2.5t32.5 2.5t27.5 9.5t19 18t7 28v164h282v-250z" />
    <glyph glyph-name="topataksarauuthai" unicode="&#xe0f;&#xe39;" horiz-adv-x="1184" 
d="M766 -348l-221 196l-221 -204l-222 196v246l222 -197l221 197l221 -197v2016q0 60 -9 99t-29.5 62.5t-53 33t-80.5 9.5h-176v-1904h-316v2142q1 1 24.5 1.5t62 1.5t88.5 1t104.5 1t109.5 1.5t103 1.5q61 0 121 -6.5t114.5 -24t100.5 -48t79.5 -79t52.5 -116.5t19 -160
v-2269h-315zM1081 -737q0 -35 -16.5 -61.5t-44.5 -46t-64.5 -33t-77 -21t-82 -11t-79.5 -3.5q-39 0 -80.5 1.5t-81.5 7.5t-76.5 17.5t-64.5 31t-45.5 48.5t-20.5 70l-4 41l-147 4v205h426v-164q0 -17 7.5 -28t20.5 -18t29 -9.5t33 -2.5t32.5 2.5t27.5 9.5t19 18t7 28v164
h282v-250z" />
    <glyph glyph-name=".notdef" horiz-adv-x="1696" 
d="M1729 1638v-57h24q29 0 29 37q0 3 -6.5 11.5t-22.5 8.5h-24zM1741 1577h-12v-57h-21v139h45q49 0 49 -41q0 -28 -12.5 -34.5t-28.5 -6.5l41 -57h-20zM1753 1499q26 0 43.5 8t28 20.5t14.5 27t4 26.5q0 46 -21.5 72t-68.5 26q-46 0 -70 -26t-24 -72q0 -34 22.5 -58
t71.5 -24zM1753 1692q53 0 77.5 -32.5t24.5 -78.5q0 -17 -6 -33.5t-18.5 -30t-32 -22t-45.5 -8.5q-24 0 -44 8.5t-33.5 22t-21 30t-7.5 33.5q0 46 28.5 78.5t77.5 32.5zM823 1294q43 -3 98 -9t114 -15t118.5 -20.5t112 -25.5t94 -30t65.5 -35q-41 81 -107 144.5t-146.5 107
t-171 66t-181.5 22.5q-69 0 -136 -13t-128.5 -40t-115 -68t-95.5 -96q74 9 147.5 12.5t147.5 3.5q46 0 92 -0.5t92 -3.5zM1536 1618v-582q-98 31 -211.5 58t-238.5 47t-259 31.5t-274 11.5q-99 0 -194 -6t-191 -19q24 92 78 175.5t135.5 146.5t189.5 100t240 37
q127 0 229.5 -28.5t179 -70.5t128 -89.5t77.5 -86.5q0 -3 -0.5 11t-0.5 38t-1 55t-1 62.5t-0.5 60t-0.5 48.5h115zM627 520q0 34 -22.5 50t-47.5 16q-28 0 -49 -16t-21 -50t21 -47.5t49 -13.5q12 0 24.5 3t22.5 10.5t16.5 19t6.5 28.5zM131 569q0 95 37.5 168t98.5 122
t139 74t159 25t157.5 -22t135 -67.5t94 -115.5t35.5 -167v-475h434v827h115v-934h-774v107h119v487q0 61 -24 107.5t-66 77t-99 46t-123 15.5q-61 0 -118.5 -17.5t-102 -50.5t-71.5 -81t-27 -109v-439l237 238q-11 4 -25.5 14.5t-28 27t-23 39.5t-9.5 54q0 74 45 117t119 43
q35 0 64 -13t49.5 -35t31.5 -51t11 -61q0 -29 -6.5 -51t-16.5 -38t-20.5 -27t-18.5 -19q-5 -5 -23.5 -22.5t-46.5 -44.5t-62.5 -60.5t-71.5 -69.5q-44 -40 -92 -85.5t-101 -98.5h-131v565z" />
    <glyph glyph-name=".null" 
 />
    <glyph glyph-name="nonmarkingreturn" horiz-adv-x="1159" 
 />
    <glyph glyph-name="space" unicode=" " horiz-adv-x="1024" 
 />
    <glyph glyph-name="exclam" unicode="!" horiz-adv-x="1106" 
d="M664 573h-222l-77 2487h376zM397 0v295h312v-295h-312z" />
    <glyph glyph-name="quotedbl" unicode="&#x22;" horiz-adv-x="737" 
d="M434 2597v467h217v-467h-217zM86 2597v467h217v-467h-217z" />
    <glyph glyph-name="numbersign" unicode="#" horiz-adv-x="1716" 
d="M1642 1380h-475l-77 -491h446l-57 -205h-422l-82 -496h-201l78 496h-205l-78 -496h-196l78 496h-435l62 205l405 4l78 487h-422l58 209h397l82 500l-4 -4h200l-77 -496h204l78 496h201l-78 -496h500zM758 1380l-74 -491h201l82 491h-209z" />
    <glyph glyph-name="dollar" unicode="$" horiz-adv-x="1257" 
d="M1155 401q0 -114 -31 -189.5t-77.5 -123t-102 -71.5t-104.5 -34.5t-84.5 -12t-42.5 -3.5l4 -241h-172v245q-62 -3 -117 8.5t-104 32.5q-42 18 -81.5 48.5t-71 77t-50.5 111.5t-19 152v365h324v-348q0 -32 5 -57t13 -44.5t18 -33.5t21 -25q13 -12 28 -21t34 -12v1065
l-398 815q-13 14 -24 37q-9 25 -15 65t-6 99v356q0 85 19 147.5t50.5 108t71 75.5t81.5 50q96 43 221 49v275h168v-275q-1 -1 31.5 -1.5t81.5 -10t106.5 -33t107 -71t82.5 -123.5t33 -191v-376h-319v360q1 42 -8 72.5t-23 51.5t-30.5 34t-30.5 20.5t-23 10.5t-8 4v-1160
l205 -409q37 -78 73 -151t70 -132q18 -34 34 -66.5t31 -60.5q0 -2 4.5 -12t10 -30.5t10 -51.5t4.5 -74v-291zM545 2834q-19 -6 -34 -14.5t-28 -17.5q-21 -22 -39 -58t-18 -98v-311q0 -50 3.5 -86t12.5 -58q3 -15 9 -25l12 -20l41 -82q9 -18 18.5 -39.5t22.5 -46.5v856z
M836 688q0 25 -14.5 62t-35 76t-41 73.5t-32.5 54.5v-729q15 3 30.5 11.5t30.5 17.5q11 11 22 24.5t20 33t14.5 45.5t5.5 61v270z" />
    <glyph glyph-name="percent" unicode="%" horiz-adv-x="1757" 
d="M647 0h-323l790 3060h324zM643 2064q0 -74 -21.5 -119.5t-57 -70.5t-82 -34t-97.5 -9t-97 9t-81 34t-55.5 70.5t-20.5 119.5v766q0 74 20.5 119t55.5 70t81 33t97 8t97.5 -8t82 -33t57 -70t21.5 -119v-766zM1630 229q0 -69 -21.5 -113.5t-57 -70t-82 -35.5t-97.5 -10
t-97.5 10t-82 35.5t-57 70t-21.5 113.5v770q0 74 21.5 119t57 70t82 33t97.5 8t97.5 -10t82 -35.5t57 -70.5t21.5 -114v-770zM463 2822q0 52 -22 71t-56 19t-54 -18.5t-20 -71.5v-754q0 -52 20 -71t54 -19q78 0 78 90v754zM1446 991q0 53 -20 71.5t-54 18.5t-54 -18.5
t-20 -71.5v-753q0 -53 20 -72t54 -19q74 0 74 91v753z" />
    <glyph glyph-name="ampersand" unicode="&#x26;" horiz-adv-x="1565" 
d="M1245 0l-24 57q-13 25 -25 62q-35 -32 -91 -63.5t-124 -54.5t-145.5 -34.5t-155.5 -3.5q-117 12 -226.5 44t-195 92.5t-137 155t-51.5 232.5v631q0 43 3.5 74t8 51.5t8.5 30.5t4 12q0 1 3 11.5t11.5 29t23.5 44.5t40 59l225 307q-21 21 -40 48.5t-38 61.5
q-34 58 -57 149.5t-20 223.5q-3 16 -3.5 33.5t-0.5 36.5v151v221q0 138 34.5 223.5t94.5 132.5t140.5 63t172.5 16t172.5 -16t140.5 -63t94.5 -132.5t34.5 -223.5v-319q0 -54 -8.5 -99.5t-22 -85t-31.5 -73t-36 -62.5q-22 -34 -45.5 -61t-48.5 -49q-2 0 -9 -9t-18.5 -23.5
t-26.5 -33t-32 -37.5q-19 -21 -40 -45.5t-46 -52.5l364 -774v340h308v-700v-31.5t-3.5 -47.5t-12 -58.5t-25.5 -63.5l180 -377h-324zM799 2646q0 57 -5.5 95.5t-19 62t-36.5 33.5t-58 10t-58 -10t-36.5 -33.5t-19 -62t-5.5 -95.5v-430q-5 -32 -4.5 -58.5t3.5 -49t8 -41
t10 -35.5q6 -19 12.5 -33.5t15.5 -24.5q17 12 52 40t69 73t56.5 106.5t15.5 141.5v311zM1061 385q-74 146 -138 271.5t-120 240.5q-49 98 -94.5 190.5t-80.5 164.5t-56.5 115.5t-22.5 45.5q-22 -25 -42 -49t-36 -49q-34 -47 -56 -99t-22 -102v-614q0 -57 22.5 -105t61 -84.5
t91 -61.5t112.5 -36t115.5 0t104 36.5t89.5 61.5t72 74z" />
    <glyph glyph-name="quotesingle" unicode="'" horiz-adv-x="410" 
d="M86 2597v467h238v-467h-238z" />
    <glyph glyph-name="parenleft" unicode="(" horiz-adv-x="553" 
d="M475 -340q0 -1 -15.5 -1.5t-38.5 -1t-50.5 -0.5t-50.5 0.5t-38.5 1t-15.5 1.5q-52 247 -92.5 457.5t-69 397.5t-44 356t-17 334.5t11 332.5t39.5 350t70 387.5t102 444.5h103h106q-47 -214 -83.5 -394.5t-64 -337.5t-45.5 -295t-26.5 -266t-8 -251t10.5 -249.5
t28.5 -262.5t45.5 -289.5t63 -330t80 -384.5z" />
    <glyph glyph-name="parenright" unicode=")" horiz-adv-x="561" 
d="M287 -340q0 -1 -15.5 -1.5t-38.5 -1t-50.5 -0.5t-50.5 0.5t-38.5 1t-15.5 1.5q44 208 80 384.5t63 330t45.5 289.5t28.5 262.5t10.5 249.5t-8 251t-26.5 266t-45.5 295t-64 337.5t-83.5 394.5h102h107q59 -239 102 -443.5t70 -387.5t39.5 -351t11 -334t-17 -335.5
t-44 -356.5t-69 -396.5t-92.5 -455.5z" />
    <glyph glyph-name="asterisk" unicode="*" horiz-adv-x="1581" 
d="M987 1069l373 -373l-115 -114l-381 381v-566h-151v561l-377 -372l-115 114l369 369h-504v152h520l-332 331l115 115l324 -324v472h151v-476l324 328l119 -115l-332 -331h520v-152h-508z" />
    <glyph glyph-name="plus" unicode="+" horiz-adv-x="1270" 
d="M782 1036v-450h-290v450h-422v291h422v393h290v-393h422v-291h-422z" />
    <glyph glyph-name="comma" unicode="," horiz-adv-x="598" 
d="M541 106q3 -58 -8.5 -107t-32.5 -89q-18 -35 -48.5 -68t-78 -57t-114 -35.5t-157.5 -3.5v209q29 -2 51 3.5t37.5 15.5t24.5 22t14 24q7 16 7.5 32t-3.5 38v172h308v-156z" />
    <glyph glyph-name="hyphen" unicode="-" horiz-adv-x="897" 
d="M86 1044v291h725v-291h-725z" />
    <glyph glyph-name="period" unicode="." horiz-adv-x="512" 
d="M102 0v307h308v-307h-308z" />
    <glyph glyph-name="slash" unicode="/" horiz-adv-x="979" 
d="M410 0h-324l487 3060h324z" />
    <glyph glyph-name="zero" unicode="0" horiz-adv-x="1331" 
d="M1217 451q0 -138 -45.5 -231.5t-121.5 -150.5t-175.5 -81.5t-206.5 -24.5q-72 0 -140.5 10.5t-129.5 34t-112 61t-88.5 92t-58 126.5t-20.5 164v2109q0 138 45.5 233.5t121.5 155t175 85.5t207 26q61 0 125.5 -11.5t125.5 -36t115.5 -64t95 -95t64 -128.5t23.5 -165
v-2109zM901 2568q0 57 -17.5 102.5t-48.5 77.5t-73.5 49t-93.5 17q-49 0 -92 -17t-74.5 -49t-49.5 -77.5t-18 -102.5v-2126q0 -57 18.5 -99.5t50.5 -71.5t74.5 -43.5t90.5 -14.5t90 13.5t74 41.5t50.5 71t18.5 103v2126z" />
    <glyph glyph-name="one" unicode="1" horiz-adv-x="1331" 
d="M606 0v2666q-13 -35 -36.5 -72.5t-52.5 -73.5t-61 -69t-62.5 -58.5t-57.5 -42t-45 -19.5v290q48 29 91.5 71.5t83 95t74.5 113t66 126.5h316v-3027h-316z" />
    <glyph glyph-name="two" unicode="2" horiz-adv-x="1331" 
d="M111 0v299l663 1475q3 6 6.5 12.5t10.5 15.5q9 16 24 44.5t37 74.5q3 16 8 33t8 33q10 27 15.5 58.5t5.5 59.5l4 463q0 57 -18 102.5t-49.5 77.5t-74.5 49t-92 17q-51 0 -94 -17t-75 -49t-50 -77.5t-18 -102.5v-254h-311v246q0 138 45 233.5t120.5 155t174.5 85.5t208 26
q61 0 125.5 -11.5t125 -36t114 -64t93.5 -95t63.5 -128.5t23.5 -165v-512q0 -34 -4.5 -64t-7.5 -55q-3 -15 -4 -28t-4 -25q-22 -59 -35 -89.5t-23 -45.5q-6 -9 -9.5 -15.5t-6.5 -9.5l-647 -1442h778v-274h-1130z" />
    <glyph glyph-name="three" unicode="3" horiz-adv-x="1331" 
d="M1208 446q0 -92 -20.5 -163.5t-57.5 -125t-88 -91t-111.5 -60.5t-128.5 -33t-138 -10q-72 0 -140.5 10.5t-129.5 34t-112 61t-88.5 92t-58 126.5t-20.5 164v229h311v-242q0 -57 19.5 -99.5t52 -71.5t75.5 -43.5t91 -14.5t90 14.5t74 43.5t50.5 71.5t18.5 99.5v729
q-5 81 -33.5 133t-69.5 82t-89 42.5t-92 14.5t-78 -2t-48 -7v253q25 -3 62.5 -4t80.5 5.5t87 22.5t81 46t64 77t35 116v622q0 57 -18 102.5t-49.5 77.5t-74 49t-91.5 17q-51 0 -94.5 -17t-75.5 -49t-50 -77.5t-18 -102.5v-254h-311v246q0 92 21.5 165t59.5 128.5t91 95
t115.5 64t133 36t144.5 11.5q61 0 124.5 -11.5t122 -36t110 -64t89.5 -95t60 -128.5t22 -165q2 -1 2.5 -27t1 -68t0.5 -95t-0.5 -109t-1 -109t-1 -95t-1 -68t-0.5 -27q1 -60 -8.5 -109t-28 -88t-44 -69.5t-54.5 -53.5q-69 -55 -147 -86q0 -1 22.5 -8.5t55.5 -25.5t71 -48
t69.5 -75.5t50 -108.5t13.5 -147v-697z" />
    <glyph glyph-name="four" unicode="4" horiz-adv-x="1331" 
d="M1081 582v-582h-315v582h-754v323l611 2122h458v-2191h230v-254h-230zM766 2597l-459 -1761h459v1761z" />
    <glyph glyph-name="five" unicode="5" horiz-adv-x="1331" 
d="M1217 451q0 -138 -46 -231.5t-122.5 -150.5t-175.5 -81.5t-205 -24.5q-72 0 -140.5 10.5t-129.5 34t-112 61t-88.5 92t-58 126.5t-20.5 164v229h311v-238q0 -57 19.5 -99.5t52 -71.5t75.5 -43.5t91 -14.5t90 13.5t74 41.5t50.5 71t18.5 103v1274q0 45 -20.5 80t-53.5 59
t-74.5 37t-84.5 13q-45 0 -87 -13t-74.5 -37t-52.5 -59t-20 -80v-258h-315v1569h1098v-254h-783v-807q49 79 126.5 123t164.5 57t174.5 -4t158 -60t115 -110.5t44.5 -156.5v-1364z" />
    <glyph glyph-name="six" unicode="6" horiz-adv-x="1331" 
d="M1217 451q0 -138 -46 -231.5t-122.5 -150.5t-175.5 -81.5t-205 -24.5q-72 0 -140.5 10.5t-129.5 34t-112 61t-88.5 92t-58 126.5t-20.5 164v2109q0 138 45 233.5t120.5 155t175 85.5t208.5 26q61 0 125.5 -11.5t125.5 -36t115.5 -64t95 -95t64 -128.5t23.5 -165v-274
h-316v282q0 57 -18 102.5t-49.5 77.5t-74 49t-91.5 17q-51 0 -94 -17t-74 -49t-48.5 -77.5t-17.5 -102.5v-741q37 58 90 96.5t115 60t129 25.5t131.5 -7.5t122 -38.5t101 -68.5t69 -96.5t25.5 -123v-1224zM901 1577q0 43 -20.5 77t-53.5 58t-74.5 36.5t-84.5 12.5t-85 -12.5
t-75 -36.5t-53.5 -58t-20.5 -77v-1135q0 -57 18.5 -99.5t50.5 -71.5t74.5 -43.5t90.5 -14.5t90 13.5t74 41.5t50.5 71t18.5 103v1135z" />
    <glyph glyph-name="seven" unicode="7" horiz-adv-x="1331" 
d="M582 0h-340l626 2744h-753v283h1093v-250z" />
    <glyph glyph-name="eight" unicode="8" horiz-adv-x="1331" 
d="M1217 446q0 -92 -21 -163.5t-58.5 -125t-89 -91t-112.5 -60.5t-129.5 -33t-138.5 -10q-72 0 -140.5 10.5t-129.5 34t-112 61t-88.5 92t-58 126.5t-20.5 164v679q-5 84 13.5 147t50 108.5t69.5 76t71 48.5t55.5 25.5t22.5 8.5q-40 16 -76 37t-67 49q-29 23 -55 53.5
t-45 69.5t-30 88t-9 109v610q0 138 45.5 233.5t121.5 155t175 85.5t207 26q61 0 125.5 -11.5t125.5 -36t115.5 -64t95 -95t64 -128.5t23.5 -165v-610q1 -60 -10.5 -109t-31.5 -88t-46 -69.5t-52 -53.5q-34 -28 -68.5 -49t-74.5 -37q0 -1 22.5 -8.5t55.5 -25.5t71 -48.5
t69.5 -76t50.5 -108.5t14 -147v-684zM901 2568q0 57 -18 102.5t-50 77.5t-75 49t-94 17q-50 0 -92 -17t-72.5 -49t-48 -77.5t-17.5 -102.5v-635q5 -74 24 -121.5t45 -75.5t54.5 -40.5t52.5 -16t40.5 -2t17.5 1.5q28 -3 54.5 0.5t51.5 16.5q20 10 40.5 28t38.5 46t30.5 68
t17.5 95v635zM901 1155q-5 82 -24 135t-44.5 84.5t-54 45t-52.5 18t-40.5 2.5t-17.5 -2t-17.5 2t-40.5 -2.5t-52.5 -18t-54.5 -45t-45 -84.5t-24 -135v-713q0 -57 18.5 -99.5t50.5 -71.5t74.5 -43.5t90.5 -14.5t90 13.5t74 41.5t50.5 71t18.5 103v713z" />
    <glyph glyph-name="nine" unicode="9" horiz-adv-x="1331" 
d="M1208 467q0 -140 -45.5 -236t-121 -155.5t-173.5 -86t-204 -26.5q-62 0 -126.5 11.5t-125.5 36.5t-115 64.5t-94.5 95.5t-64 129.5t-23.5 166.5v274h311v-282q0 -57 18 -102.5t50 -77.5t75.5 -49t94.5 -17q49 0 91.5 17t74 49t49.5 77.5t18 102.5v868q-37 -60 -90 -100
t-115 -61t-129 -25t-131 8.5t-121.5 40.5t-101 70t-69 97t-25.5 122v1097q0 138 45.5 231t121.5 149.5t175 80t207 23.5q70 0 138 -10t128.5 -33.5t111.5 -60.5t88 -90.5t57.5 -125.5t20.5 -164v-2109zM897 2585q0 57 -18.5 99.5t-50.5 71.5t-74 43.5t-90 14.5t-91 -13.5
t-75.5 -41.5t-52 -71t-19.5 -103v-1008q0 -43 20.5 -77t54 -58t76 -36.5t87.5 -12.5q43 0 84.5 12.5t74.5 36.5t53.5 58t20.5 77v1008z" />
    <glyph glyph-name="colon" unicode=":" horiz-adv-x="512" 
d="M102 2040v307h308v-307h-308zM102 0v307h308v-307h-308z" />
    <glyph glyph-name="semicolon" unicode=";" horiz-adv-x="578" 
d="M168 2040v307h307v-307h-307zM475 106q3 -58 -8 -107t-33 -89q-18 -35 -48.5 -68t-77.5 -57t-113.5 -35.5t-157.5 -3.5v209q29 -2 51 3.5t37.5 15.5t24.5 22t14 24q6 16 6.5 32t-2.5 38v172h307v-156z" />
    <glyph glyph-name="less" unicode="&#x3c;" horiz-adv-x="1225" 
d="M811 500l-676 1016l676 1011h279l-533 -1011l533 -1016h-279z" />
    <glyph glyph-name="equal" unicode="=" horiz-adv-x="967" 
d="M119 868v287h729v-287h-729zM119 356v291h729v-291h-729z" />
    <glyph glyph-name="greater" unicode="&#x3e;" horiz-adv-x="1225" 
d="M418 500h-283l533 1016l-533 1011h283l672 -1011z" />
    <glyph glyph-name="question" unicode="?" horiz-adv-x="1274" 
d="M1155 2114q0 -88 -12.5 -148t-37 -109t-62.5 -95.5t-89 -106.5q-41 -47 -74.5 -84.5t-59.5 -71t-45.5 -66.5t-32.5 -71t-19 -84.5t-6 -106.5v-577h-279v582q0 97 15.5 172t45 139t71 122.5t94.5 123.5q43 57 76.5 99t56.5 83.5t35 87.5t12 111v499q0 60 -16.5 99.5
t-44.5 63t-65 33t-79 9.5q-43 0 -80.5 -9.5t-65 -33t-43.5 -63t-16 -99.5v-360h-315v377q0 92 20.5 160t56.5 116t85 79t107 48.5t121.5 24t129.5 6.5q60 0 122 -6.5t119.5 -24t107.5 -48.5t87 -79t58.5 -116t21.5 -160v-516zM414 0v295h311v-295h-311z" />
    <glyph glyph-name="at" unicode="@" horiz-adv-x="2245" 
d="M2105 1024q-30 -219 -147 -410q-65 -108 -137 -162.5t-150 -54.5q-148 0 -242 70t-135 209q-98 -180 -241 -180l-140 4q-102 3 -151 49.5t-49 142.5q0 43 12 111l94 549q49 282 324 282h340q17 0 30.5 -9t22.5 -23t13 -31.5t3 -34.5l-139 -819q68 -156 172 -156
q99 0 172.5 106.5t122.5 319.5q9 43 15 86t6 86q0 289 -201 496q-197 209 -508 209q-183 0 -337.5 -74t-281.5 -225q-120 -143 -180.5 -305t-60.5 -351q0 -316 168 -508q93 -108 223.5 -162.5t300.5 -54.5t294 30t202 89l73 -139q-123 -84 -269.5 -124t-319.5 -40
q-201 0 -362.5 61.5t-285.5 188.5q-123 127 -184 283.5t-61 351.5q0 34 2.5 69.5t5.5 69.5q56 456 356 737q152 146 337.5 216.5t408.5 70.5q188 0 346 -63.5t288 -190.5q134 -127 198.5 -282.5t64.5 -344.5q0 -34 -3 -70t-10 -73zM1335 1511h-205q-69 0 -81 -61l-119 -684
q-3 -46 -5 -73.5t1 -37.5q9 -21 31.5 -33t62.5 -12q160 0 184 123z" />
    <glyph glyph-name="A" unicode="A" horiz-adv-x="1303" 
d="M971 0l-123 856h-410l-106 -856h-316l467 3060h340l463 -3060h-315zM651 2568l-180 -1446h344z" />
    <glyph glyph-name="B" unicode="B" horiz-adv-x="1217" 
d="M1114 483q0 -124 -37.5 -215.5t-108 -151.5t-172.5 -89t-231 -27l-463 8v3044l463 8q111 0 210.5 -30.5t174.5 -92t119.5 -156t44.5 -221.5v-623q4 -74 -4.5 -130t-27 -98t-44.5 -71t-55 -49q-34 -21 -71 -36t-81 -21q85 -17 149 -67q27 -21 53 -52t45 -73t29.5 -97
t6.5 -125v-635zM799 1921v647q0 55 -16 100.5t-46 78t-73.5 50t-98.5 17.5h-139v-1122q8 -3 39 -6t72.5 0t87.5 14.5t84.5 38t64 70.5t25.5 112zM799 807v336q0 69 -22 113t-56.5 69t-77 35t-84 11.5t-77.5 -1t-56 -2.5v-1122h139q51 0 93.5 13.5t74 41t49 71t17.5 103.5
v332z" />
    <glyph glyph-name="C" unicode="C" horiz-adv-x="1257" 
d="M1155 451q0 -92 -20.5 -164t-57.5 -126.5t-88 -92t-111.5 -61t-128.5 -34t-139 -10.5q-103 0 -195 24.5t-161.5 81.5t-110.5 150.5t-41 231.5v2142q0 140 40.5 236t109.5 155.5t161.5 86t196.5 26.5q61 0 125.5 -11.5t125 -36.5t114 -64.5t93.5 -95.5t63.5 -129.5
t23.5 -166.5v-467h-311v475q0 60 -18 106t-49.5 77t-74.5 47t-92 16q-96 0 -144 -62.5t-48 -183.5v-2159q0 -114 51.5 -171.5t140.5 -57.5q48 0 90.5 13.5t74.5 41.5t50.5 71t18.5 103v443h311v-434z" />
    <glyph glyph-name="D" unicode="D" horiz-adv-x="1303" 
d="M1200 487q0 -90 -6 -162t-25.5 -127t-55.5 -94t-97 -63t-150.5 -34t-214.5 -7l-549 8v3044l549 8q161 4 267 -28t168.5 -96.5t88 -159.5t25.5 -216v-2073zM885 2568q0 72 -12 119.5t-39 75.5t-72 39.5t-111 11.5h-233v-2568h233q77 0 123 8t71 33t32.5 69.5t7.5 118.5
v2093z" />
    <glyph glyph-name="E" unicode="E" horiz-adv-x="1036" 
d="M102 0v3060h832v-238h-508v-1118l508 -4v-254h-508v-1208h508v-238h-832z" />
    <glyph glyph-name="F" unicode="F" horiz-adv-x="1036" 
d="M426 1446v-1446h-324v3060h832v-238h-508v-1118l508 -4v-254h-508z" />
    <glyph glyph-name="G" unicode="G" horiz-adv-x="1303" 
d="M1200 102q-29 -29 -68 -50t-82.5 -36t-90 -25t-91.5 -16q-104 -18 -217 -12q1 0 -22.5 -0.5t-62 3t-87.5 13.5t-101 31t-101.5 55.5t-88 87.5t-62.5 126.5t-24 171.5v2142q0 140 45.5 236t121.5 155.5t175.5 86t206.5 26.5q61 0 126 -11.5t126 -36.5t115 -64.5
t94.5 -95.5t64 -129.5t23.5 -166.5v-459h-315v467q0 60 -17.5 106t-49 77t-74 47t-93.5 16q-49 0 -91.5 -16t-74 -47t-49.5 -77t-18 -106v-2159q0 -57 17.5 -96.5t43 -65.5t56 -40t56 -20.5t43 -7t17.5 0.5q28 -3 52.5 -1t46.5 5q40 3 76.5 16.5t58.5 40.5v967h-221v291h536
v-1430z" />
    <glyph glyph-name="H" unicode="H" horiz-adv-x="1303" 
d="M877 0v1384h-451v-1384h-324v3060h324v-1385h451v1385h323v-3060h-323z" />
    <glyph glyph-name="I" unicode="I" horiz-adv-x="528" 
d="M102 0v3060h324v-3060h-324z" />
    <glyph glyph-name="J" unicode="J" horiz-adv-x="1249" 
d="M1147 451q0 -92 -20.5 -164t-57.5 -126.5t-88 -92t-111.5 -61t-128.5 -34t-139 -10.5q-72 0 -140.5 10.5t-129.5 34t-112 61t-88.5 92t-58 126.5t-20.5 164v172h312v-181q0 -57 19 -99.5t51.5 -71.5t75.5 -43.5t91 -14.5t90.5 13.5t74.5 41.5t50.5 71t18.5 103v2618h311
v-2609z" />
    <glyph glyph-name="K" unicode="K" horiz-adv-x="1249" 
d="M877 0l-451 1368v-1368h-324v3060h324v-1364l451 1364h323l-508 -1528l508 -1532h-323z" />
    <glyph glyph-name="L" unicode="L" horiz-adv-x="1122" 
d="M102 0v3060h324v-2753h594v-307h-918z" />
    <glyph glyph-name="M" unicode="M" horiz-adv-x="1769" 
d="M1360 0l4 2662l-291 -2662h-377l-286 2662v-2662h-308v3060h476l307 -2757l307 2757h475v-3060h-307z" />
    <glyph glyph-name="N" unicode="N" horiz-adv-x="1274" 
d="M733 0l-340 2613v-2613h-291v3060h443l340 -2634v2634h291v-3060h-443z" />
    <glyph glyph-name="O" unicode="O" horiz-adv-x="1303" 
d="M1200 451q0 -92 -20.5 -164t-58 -126.5t-88.5 -92t-112 -61t-129.5 -34t-140.5 -10.5q-107 0 -206.5 24.5t-175.5 81.5t-121.5 150.5t-45.5 231.5v2142q0 140 46 236t123.5 155.5t178 86t209.5 26.5q61 0 125 -11.5t124.5 -36.5t113.5 -64.5t92.5 -95.5t62.5 -129.5
t23 -166.5v-2142zM885 2601q0 60 -17 106t-47 77t-71.5 47t-90.5 16t-91.5 -16t-74 -47t-49.5 -77t-18 -106v-2159q0 -57 17.5 -99.5t47.5 -71.5t71 -43.5t89 -14.5t90.5 13.5t74.5 41.5t50.5 71t18.5 103v2159z" />
    <glyph glyph-name="P" unicode="P" horiz-adv-x="1217" 
d="M1114 2007q0 -90 -6.5 -167t-26.5 -139.5t-57 -111t-98 -81t-149.5 -49.5t-211.5 -17h-139v-1442h-324v3052l463 8q161 4 267 -28t168.5 -96.5t88 -159.5t25.5 -216v-553zM799 2568q0 72 -12 119.5t-39 75.5t-72 39.5t-111 11.5h-139v-1131h139q81 0 128 21.5t70.5 62
t29.5 98.5t6 130v573z" />
    <glyph glyph-name="Q" unicode="Q" horiz-adv-x="1303" 
d="M836 0q-13 -6 -25.5 -11.5t-28.5 -8.5q-24 -10 -59 -13.5t-72 -3.5q-107 0 -206.5 24.5t-175.5 81.5t-121.5 150.5t-45.5 231.5v2142q0 140 45.5 236t121.5 155.5t175.5 86t206.5 26.5q61 0 126 -11.5t126 -36.5t115 -64.5t94.5 -95.5t64 -129.5t23.5 -166.5v-2126
q0 -2 -0.5 -20t-2 -43t-6 -52t-11.5 -45h172v-307h-516zM885 2601q0 60 -17.5 106t-49 77t-74 47t-93.5 16q-49 0 -91.5 -16t-74 -47t-49.5 -77t-18 -106v-2159q0 -57 18.5 -99.5t50.5 -71.5t74 -43.5t90 -14.5t90.5 13.5t74.5 41.5t50.5 71t18.5 103v2159z" />
    <glyph glyph-name="R" unicode="R" horiz-adv-x="1217" 
d="M799 0v1180q0 67 -6 116.5t-29.5 82t-70.5 48t-128 15.5h-139v-1442h-324v3043l463 9q161 4 267 -28t168.5 -96.5t88 -159.5t25.5 -216v-545q0 -125 -10 -208t-34.5 -134t-64.5 -74.5t-100 -29.5q28 -4 54.5 -18t48.5 -36q20 -23 39 -55.5t34 -80t24 -111.5t9 -150v-1110
h-315zM799 2560q0 72 -12 119.5t-39 75.5t-72 39.5t-111 11.5h-139v-1123h139q81 0 128 21.5t70.5 62t29.5 98.5t6 130v565z" />
    <glyph glyph-name="S" unicode="S" horiz-adv-x="1257" 
d="M1155 401q0 -93 -20.5 -161.5t-57 -117.5t-86 -79.5t-108 -48.5t-123 -24.5t-129.5 -6.5q-67 0 -132 6.5t-123.5 24.5t-108.5 48.5t-87 79.5t-57.5 117.5t-20.5 161.5v365h324v-348q0 -57 16 -96t43.5 -63.5t65 -35t80.5 -10.5q41 0 78.5 9.5t65.5 33t44.5 63t16.5 99.5
v405q0 49 -14 91.5t-37 83t-52.5 80.5t-60.5 85l-455 664q-59 82 -87 170t-28 198v459q0 93 20.5 161.5t57.5 117t87 78.5t108.5 47.5t123.5 23.5t132 6q65 0 129.5 -6t123 -23.5t108 -47.5t86 -78.5t57 -117t20.5 -161.5v-364h-319v352q0 57 -16.5 96t-44.5 63t-65.5 35
t-78.5 11q-43 0 -80.5 -11t-65 -35t-43.5 -63t-16 -96v-442q0 -60 10 -106t27 -84.5t40.5 -72.5t49.5 -69l459 -639q32 -49 58.5 -88.5t45 -80t29 -87t10.5 -109.5v-463z" />
    <glyph glyph-name="T" unicode="T" horiz-adv-x="1241" 
d="M782 2773v-2773h-323v2773h-373v287h1069v-287h-373z" />
    <glyph glyph-name="U" unicode="U" horiz-adv-x="1303" 
d="M1200 451q0 -92 -20.5 -164t-58 -126.5t-88.5 -92t-112 -61t-129.5 -34t-140.5 -10.5q-107 0 -206.5 24.5t-175.5 81.5t-121.5 150.5t-45.5 231.5v2609h316v-2618q0 -57 18.5 -99.5t50.5 -71.5t74 -43.5t90 -14.5t90.5 13.5t74.5 41.5t50.5 71t18.5 103v2618h315v-2609z
" />
    <glyph glyph-name="V" unicode="V" horiz-adv-x="1303" 
d="M823 0h-340l-467 3060h316l319 -2454l320 2454h315z" />
    <glyph glyph-name="W" unicode="W" horiz-adv-x="1974" 
d="M1651 0h-377l-303 2634l-238 -2634h-377l-340 3060h332l238 -2634l196 2634h373l262 -2634l209 2634h328z" />
    <glyph glyph-name="X" unicode="X" horiz-adv-x="1311" 
d="M885 0l-230 1061l-229 -1061h-324l410 1532l-410 1528h324l229 -1061l230 1061h323l-409 -1528l409 -1532h-323z" />
    <glyph glyph-name="Y" unicode="Y" horiz-adv-x="1303" 
d="M807 1364v-1364h-303v1364l-488 1696h316l319 -1237l320 1237h315z" />
    <glyph glyph-name="Z" unicode="Z" horiz-adv-x="1294" 
d="M492 307h700v-307h-1106l733 2757h-733v303h1139z" />
    <glyph glyph-name="bracketleft" unicode="[" horiz-adv-x="561" 
d="M266 -172q-53 246 -94 470.5t-69.5 435.5t-43.5 412t-16.5 399.5t11 397.5t40 406t70.5 426t102 457h209q-58 -268 -101 -499.5t-71.5 -439.5t-42 -399t-13 -378t15.5 -376t43.5 -393.5t71 -431t97.5 -487.5h-209z" />
    <glyph glyph-name="backslash" unicode="\" horiz-adv-x="954" 
d="M553 0l-487 3060h323l488 -3060h-324z" />
    <glyph glyph-name="bracketright" unicode="]" horiz-adv-x="561" 
d="M57 -172q55 262 97.5 488.5t71 431t43.5 393.5t15.5 375.5t-13 377t-41.5 398.5t-71.5 439.5t-101.5 500.5h213q58 -238 100.5 -457t70 -426t40.5 -405.5t12 -396.5t-15.5 -399t-43 -412t-69.5 -436t-95 -472h-213z" />
    <glyph glyph-name="asciicircum" unicode="^" horiz-adv-x="1188" 
d="M909 1782l-315 393l-311 -393l-246 -4l426 565l262 4l430 -569z" />
    <glyph glyph-name="underscore" unicode="_" horiz-adv-x="1176" 
d="M0 -283v111h1176v-111h-1176z" />
    <glyph glyph-name="grave" unicode="`" horiz-adv-x="680" 
d="M213 1880l-168 467h238l168 -467h-238z" />
    <glyph glyph-name="a" unicode="a" horiz-adv-x="1184" 
d="M791 -4v156q-49 -79 -120.5 -123.5t-150 -57t-156 4t-139.5 60t-100.5 111t-38.5 156.5v692q0 97 28 179.5t83 143t136 94.5t187 34h246v491q0 60 -12.5 99.5t-35 63t-54.5 33t-70 9.5q-42 0 -74.5 -9.5t-55 -33t-34.5 -63t-12 -99.5v-200h-299v217q0 93 18 161.5t50 117
t76 78.5t97 47.5t112 23.5t122 6q61 0 121 -6t114.5 -23.5t100.5 -47.5t79.5 -78.5t52.5 -117t19 -161.5v-1954zM766 1217q-106 6 -184 -13q-36 -8 -68.5 -21.5t-57.5 -36.5t-40 -56.5t-15 -81.5v-623q0 -35 14.5 -66t38.5 -53.5t56 -35.5t68 -13q37 -2 71 10.5t60 35
t41.5 54t15.5 68.5v832z" />
    <glyph glyph-name="b" unicode="b" horiz-adv-x="1184" 
d="M1081 303q0 -89 -37.5 -156.5t-97.5 -111t-135.5 -60t-152 -4t-146.5 57t-119 123.5v-152h-291v3019h291v-832q49 79 119 123.5t146.5 57t152 -4t135.5 -60t97.5 -111t37.5 -156.5v-1733zM766 1954q0 71 -44.5 114.5t-115.5 53.5q-37 4 -71 -7.5t-60 -35t-41.5 -56
t-15.5 -69.5v-1569q0 -42 15.5 -75t41.5 -55t60 -32.5t71 -5.5q35 1 64.5 14.5t50.5 36t33 52.5t12 65v1569z" />
    <glyph glyph-name="c" unicode="c" horiz-adv-x="1044" 
d="M995 401q0 -140 -35 -225.5t-95.5 -133t-142 -63.5t-173.5 -16q-62 0 -119 6.5t-106.5 24.5t-90.5 48.5t-70 79.5t-45 117.5t-16 161.5v1536q0 138 35 223.5t96 132.5t142.5 63t173.5 16t173.5 -16t142 -63t95.5 -132.5t35 -223.5v-323h-315v307q0 60 -7.5 99.5t-23 63
t-40.5 33t-60 9.5t-60 -9.5t-41 -33t-23 -63t-7 -99.5v-1503q0 -60 7 -99.5t23 -63t41 -33t60 -9.5t60 10.5t40.5 35t23 63.5t7.5 96v176h315v-193z" />
    <glyph glyph-name="d" unicode="d" horiz-adv-x="1184" 
d="M791 0v152q-49 -79 -119.5 -123.5t-147 -57t-152 4t-135.5 60t-97.5 111t-37.5 156.5v1733q0 89 37.5 156.5t97.5 111t135.5 60t152 4t147 -57t119.5 -123.5v832h290v-3019h-290zM766 1954q0 37 -15.5 69.5t-41.5 56t-60 35t-71 7.5q-72 -10 -116 -53.5t-44 -114.5v-1569
q0 -35 11.5 -65t32.5 -52.5t50.5 -36t65.5 -14.5q37 -5 71 5.5t60 32.5t41.5 55t15.5 75v1569z" />
    <glyph glyph-name="e" unicode="e" horiz-adv-x="1130" 
d="M1081 401q0 -93 -18.5 -161.5t-52 -117.5t-79.5 -79.5t-100 -48.5t-114.5 -24.5t-122.5 -6.5q-65 0 -126.5 6.5t-116 24.5t-100.5 48.5t-79 79.5t-51.5 117.5t-18.5 161.5v1536q0 92 18.5 160t51.5 116.5t79 79.5t100.5 48.5t116 24t126.5 6.5q61 0 121 -6.5t114.5 -24
t100.5 -48.5t79.5 -79.5t52.5 -116.5t19 -160v-720h-663v-799q0 -57 12 -96t34.5 -63.5t55 -35t74.5 -10.5q38 0 70 9.5t54.5 33t35 63t12.5 99.5v348h315v-365zM766 1921q0 60 -12.5 99.5t-35 63t-54.5 33t-70 9.5q-42 0 -74.5 -9.5t-55 -33t-34.5 -63t-12 -99.5v-491h348
v491z" />
    <glyph glyph-name="f" unicode="f" horiz-adv-x="725" 
d="M520 2093v-2093h-315v2093h-189v246h189v344q0 -2 -0.5 15.5t3.5 46t14.5 64t31.5 71.5t56 68.5t88 53.5t126.5 27t171.5 -10v-111v-110q-44 4 -75 1.5t-51 -10t-32 -19.5t-18 -26q-18 -30 0 -73v-332h185v-246h-185z" />
    <glyph glyph-name="g" unicode="g" horiz-adv-x="1184" 
d="M1081 -119q0 -92 -19 -160t-52.5 -116t-79.5 -79t-100.5 -48.5t-114.5 -24t-121 -6.5q-63 0 -122 6.5t-112 24t-97 48.5t-76 79t-50 116t-18 160v53h299v-36q0 -57 12 -96t34.5 -63.5t55 -35t74.5 -10.5q38 0 70 10.5t54.5 35t35 63.5t12.5 96v172v168q-15 -48 -52 -82.5
t-86.5 -54.5t-107.5 -26t-116.5 3t-113 33t-96.5 62.5t-67 92.5t-25 123v1647q0 89 37.5 156.5t97.5 111t135.5 60t152 4t147 -57t119.5 -123.5v152h290v-2458zM766 1954q0 41 -15.5 73t-41.5 53.5t-60 32t-71 9.5q-36 -2 -65.5 -15t-50.5 -35.5t-32.5 -52.5t-11.5 -65
v-1483q0 -71 44 -115t116 -53q37 -5 71 7t60 35.5t41.5 56t15.5 69.5v1483z" />
    <glyph glyph-name="h" unicode="h" horiz-adv-x="1184" 
d="M766 0v1954q0 35 -12 65t-33 52.5t-50.5 35.5t-64.5 15q-37 1 -71 -11t-60 -34.5t-41.5 -54t-15.5 -68.5v-1954h-316v3019h291v-832q49 79 119 123.5t146.5 57t152 -4t135.5 -60t97.5 -111t37.5 -156.5v-2036h-315z" />
    <glyph glyph-name="i" unicode="i" horiz-adv-x="586" 
d="M135 2683v336h316v-336h-316zM135 0v2339h316v-2339h-316z" />
    <glyph glyph-name="j" unicode="j" horiz-adv-x="573" 
d="M156 2683v336h315v-336h-315zM471 -119q0 -140 -36.5 -239.5t-109 -155.5t-179.5 -66.5t-248 27.5v279q75 -26 124.5 -24.5t79.5 25.5t42 67t12 100v2445h315v-2458z" />
    <glyph glyph-name="k" unicode="k" horiz-adv-x="1143" 
d="M705 1315l376 -1315h-323l-340 1274v-1274h-316v3019h316v-1630l348 950h324z" />
    <glyph glyph-name="l" unicode="l" horiz-adv-x="520" 
d="M102 0v3019h316v-3019h-316z" />
    <glyph glyph-name="m" unicode="m" horiz-adv-x="1675" 
d="M1257 0v1954q0 31 -8.5 61t-25 54t-41 38.5t-56.5 14.5q-31 0 -55 -14.5t-41 -38.5t-26 -54t-9 -61v-1954h-315v1954q0 31 -8.5 61t-25 54t-41 38.5t-56.5 14.5q-31 0 -55 -14.5t-41 -38.5t-26 -54t-9 -61v-1954h-316v2339h291v-152q63 78 122 120.5t113 58t102 8.5
t89 -27q47 -22 91.5 -61.5t84.5 -98.5q49 80 111 124.5t126.5 57.5t125.5 -4t109 -60.5t77 -111.5t29 -157v-2036h-316z" />
    <glyph glyph-name="n" unicode="n" horiz-adv-x="1184" 
d="M766 0v1954q0 35 -12 65t-33 52.5t-50.5 35.5t-64.5 15q-37 1 -71 -11t-60 -34.5t-41.5 -54t-15.5 -68.5v-1954h-316v2339h291v-152q49 79 119 123.5t146.5 57t152 -4t135.5 -60t97.5 -111t37.5 -156.5v-2036h-315z" />
    <glyph glyph-name="o" unicode="o" horiz-adv-x="1184" 
d="M1081 401q0 -93 -18.5 -161.5t-52 -117.5t-79.5 -79.5t-100 -48.5t-114.5 -24.5t-122.5 -6.5q-65 0 -126.5 6.5t-116 24.5t-100.5 48.5t-79 79.5t-51.5 117.5t-18.5 161.5v1536q0 92 18.5 160t51.5 116.5t79 79.5t100.5 48.5t116 24t126.5 6.5q61 0 121 -6.5t114.5 -24
t100.5 -48.5t79.5 -79.5t52.5 -116.5t19 -160v-1536zM766 1921q0 60 -12.5 99.5t-35 63t-54.5 33t-70 9.5q-42 0 -74.5 -9.5t-55 -33t-34.5 -63t-12 -99.5v-1503q0 -57 12 -96t34.5 -63.5t55 -35t74.5 -10.5q38 0 70 9.5t54.5 33t35 63t12.5 99.5v1503z" />
    <glyph glyph-name="p" unicode="p" horiz-adv-x="1184" 
d="M1081 303q0 -68 -26 -122t-68.5 -93t-98 -63.5t-114.5 -34t-117.5 -4t-107.5 25.5t-84 55t-47 85v-721h-316v2908h291v-152q49 79 119 123.5t146.5 57t152 -4t135.5 -60t97.5 -111t37.5 -156.5v-1733zM766 1954q0 35 -12 65t-33 52.5t-50.5 35.5t-64.5 15q-37 1 -71 -9.5
t-60 -32t-41.5 -53.5t-15.5 -73v-1569q0 -37 15.5 -69.5t41.5 -56t60 -35.5t71 -7q71 9 115.5 53t44.5 115v1569z" />
    <glyph glyph-name="q" unicode="q" horiz-adv-x="1184" 
d="M766 -569v721q-15 -48 -52 -82.5t-86.5 -54.5t-107.5 -26t-116.5 3t-113 33t-96.5 62.5t-67 92.5t-25 123v1733q0 89 37.5 156.5t97.5 111t135.5 60t152 4t147 -57t119.5 -123.5v152h290v-2908h-315zM766 1954q0 41 -15.5 73t-41.5 53.5t-60 32t-71 9.5q-36 -2 -65.5 -15
t-50.5 -35.5t-32.5 -52.5t-11.5 -65v-1569q0 -71 44 -115t116 -53q37 -5 71 7t60 35.5t41.5 56t15.5 69.5v1569z" />
    <glyph glyph-name="r" unicode="r" horiz-adv-x="815" 
d="M766 2064q-53 0 -96 -3.5t-80 -12.5q-32 -11 -63 -25t-55 -36.5t-39 -55t-15 -80.5v-1851h-316v2339h316v-160q17 42 40 71t50 48t56.5 29.5t58.5 15.5q34 6 70 5.5t73 -9.5v-275z" />
    <glyph glyph-name="s" unicode="s" horiz-adv-x="1098" 
d="M995 401q0 -140 -35 -225.5t-95.5 -133t-142 -63.5t-173.5 -16q-62 0 -119 6.5t-106.5 24.5t-90.5 48.5t-70 79.5t-45 117.5t-16 161.5v365h316v-348q0 -57 7 -96t23 -63.5t41 -35t60 -10.5t60 9.5t40.5 33t23 63t7.5 99.5v258q0 41 -8.5 71.5t-24 57.5t-38.5 55.5
t-52 65.5l-352 442q-32 42 -52.5 77t-31.5 70.5t-15 73.5t-4 86v262q0 138 35 223.5t96 132.5t142.5 63t173.5 16t173.5 -16t142 -63t95.5 -132.5t35 -223.5v-323h-315v307q0 60 -7.5 99.5t-23 63t-40.5 33t-60 9.5t-60 -9.5t-41 -33t-23 -63t-7 -99.5v-246
q0 -45 12.5 -81.5t31 -67t41 -56.5t42.5 -49l348 -426q35 -43 55.5 -81t31 -75.5t13 -75t2.5 -79.5v-283z" />
    <glyph glyph-name="t" unicode="t" horiz-adv-x="758" 
d="M537 2093v-1712q0 -57 13.5 -90.5t37.5 -50.5t57 -22t72 -5v-250q-44 -3 -98 0t-109 17t-107 41t-92.5 73t-65 112.5t-24.5 158.5v1728h-196v246h196v315l316 131v-446h196v-246h-196z" />
    <glyph glyph-name="u" unicode="u" horiz-adv-x="1184" 
d="M1081 401q0 -93 -18.5 -161.5t-52 -117.5t-79.5 -79.5t-100 -48.5t-114.5 -24.5t-122.5 -6.5q-65 0 -126.5 6.5t-116 24.5t-100.5 48.5t-79 79.5t-51.5 117.5t-18.5 161.5v1938h316v-1921q0 -57 12 -96t34.5 -63.5t55 -35t74.5 -10.5q38 0 70 9.5t54.5 33t35 63
t12.5 99.5v1921h315v-1938z" />
    <glyph glyph-name="v" unicode="v" horiz-adv-x="1057" 
d="M741 0h-475l-188 2339h291l143 -1962l180 1962h287z" />
    <glyph glyph-name="w" unicode="w" horiz-adv-x="1651" 
d="M1397 0h-463l-107 2048l-147 -2048h-442l-168 2339h286l111 -1962l147 1962h422l111 -1962l147 1962h287z" />
    <glyph glyph-name="x" unicode="x" horiz-adv-x="1135" 
d="M741 0l-172 631l-176 -631h-315l340 1171l-340 1168h315l176 -631l172 631h316l-340 -1172l340 -1167h-316z" />
    <glyph glyph-name="y" unicode="y" horiz-adv-x="1135" 
d="M717 -569h-316l54 569l-377 2339h282l234 -1639l180 1639h283z" />
    <glyph glyph-name="z" unicode="z" horiz-adv-x="1184" 
d="M102 0l615 2064h-615v275h979l-618 -2065h618v-274h-979z" />
    <glyph glyph-name="braceleft" unicode="{" horiz-adv-x="561" 
d="M475 -340q0 -1 -15.5 -1.5t-38.5 -1t-50.5 -0.5t-50.5 0.5t-38.5 1t-15.5 1.5q-52 247 -92.5 457.5t-69 397.5t-44 356t-17 334.5t11 332.5t39.5 350t70 387.5t102 444.5h103h106q-47 -214 -83.5 -394.5t-64 -337.5t-45.5 -295t-26.5 -266t-8 -251t10.5 -249.5
t28.5 -262.5t45.5 -289.5t63 -330t80 -384.5z" />
    <glyph glyph-name="bar" unicode="|" horiz-adv-x="827" 
d="M299 -426v3023h229v-3023h-229z" />
    <glyph glyph-name="braceright" unicode="}" horiz-adv-x="561" 
d="M287 -340q0 -1 -15.5 -1.5t-38.5 -1t-50.5 -0.5t-50.5 0.5t-38.5 1t-15.5 1.5q44 208 80 384.5t63 330t45.5 289.5t28.5 262.5t10.5 249.5t-8 251t-26.5 266t-45.5 295t-64 337.5t-83.5 394.5h102h107q59 -239 102 -443.5t70 -387.5t39.5 -351t11 -334t-17 -335.5
t-44 -356.5t-69 -396.5t-92.5 -455.5z" />
    <glyph glyph-name="asciitilde" unicode="~" horiz-adv-x="1765" 
d="M1110 934l-459 258l-458 -258v213l458 258l459 -258l459 258v-213z" />
    <glyph glyph-name="thothannobasethai" unicode="&#xf700;" horiz-adv-x="1147" 
d="M733 0v1102h-254v254h254v561q0 60 -12 99.5t-34.5 63t-55 33t-74.5 9.5q-38 0 -70 -9.5t-54.5 -33t-35 -63t-12.5 -99.5v-303h-315v323q0 137 44 227t129 139t208.5 60.5t281.5 -8.5v131h311v-2486h-311z" />
    <glyph glyph-name="yoyingnobasethai" unicode="&#xf70f;" horiz-adv-x="1847" 
d="M1745 426q0 -106 -33 -178.5t-82 -119.5t-107 -73t-108 -38.5t-84.5 -14.5t-36.5 -2h-532v254h266h266q1 0 13 1t30 5.5t38.5 15t38 29.5t29 48.5t11.5 72.5v152q-49 -80 -119 -125t-146.5 -59t-152 3t-135.5 60t-97.5 112t-37.5 160v1176q0 60 -8.5 99t-28 62.5
t-51.5 33t-80 9.5h-180v-2109h-316v2347q1 1 24.5 1.5t62 1.5t89 1t105.5 1t110.5 1.5t104.5 1.5q61 0 121 -6.5t113.5 -24t99 -48t79 -79t52 -116.5t18.5 -160v-1110q0 -71 42.5 -115t113.5 -53q37 -5 71.5 7t61.5 35.5t43.5 56t16.5 69.5v1528h315v-1913z" />
    <glyph glyph-name="quoteleft" unicode="&#x2018;" horiz-adv-x="668" 
d="M340 2347l-299 467h303l205 -467h-209z" />
    <glyph glyph-name="quoteright" unicode="&#x2019;" horiz-adv-x="684" 
d="M336 2347h-209l205 467h307z" />
    <glyph glyph-name="quotedblleft" unicode="&#x201c;" horiz-adv-x="1049" 
d="M721 2347l-303 467h307l205 -467h-209zM328 2347l-303 467h307l205 -467h-209z" />
    <glyph glyph-name="quotedblright" unicode="&#x201d;" horiz-adv-x="1073" 
d="M721 2347h-209l205 467h307zM328 2347h-209l205 467h307z" />
    <glyph glyph-name="bullet" unicode="&#x2022;" horiz-adv-x="1462" 
d="M733 393q-138 0 -248.5 40t-194.5 108t-141 159t-86 193.5t-30 210.5t25.5 210.5t82 193.5t139.5 159t197 108t256 40q138 0 249 -40t194 -108t138 -159t83 -193.5t27.5 -210.5t-28 -210.5t-82.5 -193.5t-138 -159t-194 -108t-249 -40z" />
    <glyph glyph-name="endash" unicode="&#x2013;" horiz-adv-x="2048" 
d="M205 1126v238h1638v-238h-1638z" />
    <glyph glyph-name="emdash" unicode="&#x2014;" horiz-adv-x="4096" 
d="M205 938v197h3686v-197h-3686z" />
    <glyph glyph-name="uni00A0" unicode="&#xa0;" horiz-adv-x="1024" 
 />
    <glyph glyph-name="kokaithai" unicode="&#xe01;" horiz-adv-x="1184" 
d="M766 0v1905q0 60 -9 99t-29.5 62.5t-53 33t-80.5 9.5h-176v-2109h-316v2347q1 1 24.5 1.5t62 1.5t88.5 1t104.5 1t109.5 1.5t103 1.5q61 0 121 -6.5t114.5 -24t100.5 -48t79.5 -79t52.5 -116.5t19 -160v-1921h-315z" />
    <glyph glyph-name="khokhaithai" unicode="&#xe02;" horiz-adv-x="1184" 
d="M1081 401q0 -93 -18.5 -161.5t-52 -117.5t-79.5 -79.5t-100 -48.5t-114.5 -24.5t-122.5 -6.5q-65 0 -126.5 6.5t-116 24.5t-100.5 48.5t-79 79.5t-51.5 117.5t-18.5 161.5v971q0 114 22.5 191.5t56.5 131.5t74.5 91.5t77.5 70.5t65 68.5t36 85.5q0 69 -33 94
q-14 11 -37.5 14t-59.5 -6.5t-86 -35.5t-116 -74v254q74 49 136.5 74.5t115 33.5t96 2t78.5 -20q41 -15 72 -42t55 -64q41 -65 52.5 -118.5t2 -99t-34.5 -86t-57.5 -80.5t-67.5 -82t-64.5 -91t-48.5 -107.5t-19 -130.5v-1028q0 -57 12 -96t34.5 -63.5t55 -35t74.5 -10.5
q38 0 70 9.5t54.5 33t35 63t12.5 99.5v1925h315v-1942z" />
    <glyph glyph-name="khokhuatthai" unicode="&#xe03;" horiz-adv-x="1257" 
d="M1155 401q0 -93 -18.5 -161.5t-52 -117.5t-79.5 -79.5t-100 -48.5t-114.5 -24.5t-122.5 -6.5q-63 0 -123 6.5t-114.5 24.5t-100.5 48.5t-79 79.5t-52 117.5t-19 161.5v1463q0 34 13 66t28 57q9 15 19.5 28t25.5 29q-77 -3 -136 10t-105 35q-25 9 -47 23.5t-44 29.5
l136 230q41 -31 80 -47.5t74.5 -22.5t67.5 -3t59 11q63 18 116 62l119 -271q-35 -24 -54 -52.5t-27.5 -57.5t-9.5 -57.5t1 -53.5v-1462q0 -57 12.5 -96t35 -63.5t54 -35t70.5 -10.5q41 0 74 9.5t55.5 33t34.5 63t12 99.5v1921h311v-1938z" />
    <glyph glyph-name="khokhwaithai" unicode="&#xe04;" horiz-adv-x="1184" 
d="M766 0v1921q0 60 -12.5 99.5t-35 63t-54.5 33t-70 9.5q-42 0 -74.5 -9.5t-55 -33t-34.5 -63t-12 -99.5v-561h221v-254h-221v-1106h-316v1937q0 92 18.5 160t51.5 116.5t79 79.5t100.5 48.5t116 24t126.5 6.5q61 0 121 -6.5t114.5 -24t100.5 -48.5t79.5 -79.5t52.5 -116.5
t19 -160v-1937h-315z" />
    <glyph glyph-name="khokhonthai" unicode="&#xe05;" horiz-adv-x="1184" 
d="M766 0v2093l-172 -86l-176 86v-733h221v-254h-221v-1106h-316v1954q0 72 13.5 128t35.5 99t50 74.5t57 54.5q34 25 73.5 40.5t86.5 25.5l176 -90l172 90q43 -10 83 -25.5t77 -40.5q29 -23 57.5 -54.5t50.5 -74.5t35 -99t12 -128v-1954h-315z" />
    <glyph glyph-name="khorakhangthai" unicode="&#xe06;" horiz-adv-x="1257" 
d="M1155 303q0 -91 -37.5 -160t-97.5 -112t-135.5 -60t-152 -3t-146.5 59t-119 125v-152h-283v1864q-3 34 11.5 66t29.5 57q10 15 19.5 28t21.5 29q-77 -3 -136 10t-105 35q-25 9 -47 23.5t-44 29.5l136 230q41 -31 80 -47.5t74.5 -22.5t67.5 -3t59 11q63 18 116 62
l119 -271q-42 -23 -61 -51t-25.5 -57.5t-5 -58.5t1.5 -54v-1495q0 -37 15.5 -68.5t41.5 -54t60 -35t71 -10.5q35 0 64.5 13t50.5 35.5t33 53.5t12 66v1954h311v-2036z" />
    <glyph glyph-name="ngonguthai" unicode="&#xe07;" horiz-adv-x="1130" 
d="M1028 319q0 -46 -8.5 -88t-24.5 -79q-14 -31 -36 -60t-54 -51t-75.5 -34t-100.5 -7h-262l-414 2355h295l369 -2081v1680q0 55 -19 93.5t-50 60.5t-71 27.5t-81 -5.5v201q40 29 94.5 44t114 12.5t117.5 -23t103.5 -61t74 -103t28.5 -148.5v-1733z" />
    <glyph glyph-name="chochanthai" unicode="&#xe08;" horiz-adv-x="1130" 
d="M717 0v1106h-254v254h254v561q0 60 -12 99.5t-34.5 63t-55.5 33t-74 9.5q-42 0 -74.5 -9.5t-55 -33t-34.5 -63t-12 -99.5v-307h-312v323q0 92 19 160t52 116.5t79 79.5t100.5 48.5t115 24t122.5 6.5q92 0 179.5 -16t156 -63t110 -132.5t41.5 -223.5v-1937h-311z" />
    <glyph glyph-name="chochingthai" unicode="&#xe09;" horiz-adv-x="1184" 
d="M791 0v152q-49 -80 -118 -125t-143.5 -59t-148 3t-132 60t-94.5 112t-36 160v1057h315v-975q0 -71 40.5 -115t111.5 -53q37 -5 69.5 7t57 35.5t39 56t14.5 69.5v1557q0 60 -12.5 99t-35 62.5t-54.5 33t-70 9.5q-42 0 -74.5 -9.5t-55 -33t-34.5 -62.5t-12 -99v-205h-299
v221q0 138 39 223.5t104.5 132t151.5 62.5t180 16q61 0 121 -6.5t114.5 -24t100.5 -48t79.5 -79t52.5 -116.5t19 -160v-1958h-290z" />
    <glyph glyph-name="chochangthai" unicode="&#xe0a;" horiz-adv-x="1184" 
d="M1081 401q0 -93 -18.5 -161.5t-52 -117.5t-79.5 -79.5t-100 -48.5t-114.5 -24.5t-122.5 -6.5q-65 0 -126.5 6.5t-116 24.5t-100.5 48.5t-79 79.5t-51.5 117.5t-18.5 161.5v467v463q-11 98 7 172.5t52 133t78 104.5t84.5 88.5t71.5 85t39 92.5q0 69 -33 94
q-14 11 -37.5 14t-59.5 -6.5t-86 -35.5t-116 -74v254q74 49 136.5 74.5t115 33.5t96 2t78.5 -20q41 -16 72 -42.5t55 -64.5q40 -74 49 -132.5t-3 -108.5t-40.5 -94.5t-63 -88.5t-70 -91t-63 -103.5t-41.5 -124.5t-5 -154v-921q0 -57 12 -96t34.5 -63.5t55 -35t74.5 -10.5
q38 0 70 9.5t54.5 33t35 63t12.5 99.5v909q0 78 -18 119t-43 58t-51.5 18.5t-43.5 1.5v213q26 1 54 8.5t50.5 27t37 56t14.5 96.5v565h315v-565q5 -55 0.5 -97t-15 -73t-26 -52.5t-32.5 -35.5q-19 -15 -40.5 -26.5t-45.5 -14.5q47 -18 86 -61q17 -17 32.5 -40t26 -52.5
t15 -66t-0.5 -79.5v-926z" />
    <glyph glyph-name="sosothai" unicode="&#xe0b;" horiz-adv-x="1225" 
d="M1122 401q0 -93 -18.5 -161.5t-52 -117.5t-79.5 -79.5t-100 -48.5t-114.5 -24.5t-122.5 -6.5q-63 0 -123 6.5t-114.5 24.5t-100.5 48.5t-79 79.5t-52 117.5t-19 161.5v1430q0 53 18 92.5t40 67.5q12 15 27.5 29.5t33.5 23.5q-77 -3 -136 10t-105 35q-25 9 -47 23.5
t-44 29.5l136 230q41 -31 80 -47.5t74.5 -22.5t67.5 -3t59 11q63 18 116 62l119 -271q-45 -26 -71 -60t-39 -69.5t-16 -68.5t-1 -56v-1429q0 -57 12 -96t34.5 -63.5t55 -35t74.5 -10.5q38 0 70 9.5t54.5 33t35 63t12.5 99.5v1028q0 73 -18 113t-43 58.5t-51.5 21.5t-43.5 3
v213q17 -5 43.5 -1t51.5 23.5t43 59t18 107.5v446h315v-446q5 -56 1 -98t-14 -73t-24.5 -52t-31.5 -35q-19 -16 -40.5 -27t-45.5 -14q48 -18 86 -62q17 -17 31.5 -40t24.5 -52.5t14 -65.5t-1 -79v-1045z" />
    <glyph glyph-name="chochoethai" unicode="&#xe0c;" horiz-adv-x="1847" 
d="M1745 303q0 -91 -37.5 -160t-97.5 -112t-135.5 -60t-152 -3t-146.5 59t-119 125v-156l-291 4v1905q0 60 -9 99t-29.5 62.5t-53 33t-80.5 9.5h-176v-2109h-316v2347q1 1 24.5 1.5t62 1.5t88.5 1t104.5 1t109.5 1.5t103 1.5q61 0 121 -6.5t114.5 -24t100.5 -48t79.5 -79
t52.5 -116.5t19 -160v-1536q0 -37 15.5 -68.5t42 -54t60.5 -35t71 -10.5q35 0 64.5 13t50.5 35.5t33 53.5t12 66v1954h315v-2036z" />
    <glyph glyph-name="dochadathai" unicode="&#xe0e;" horiz-adv-x="1184" 
d="M766 -553l-332 180l-332 -180v238l332 180l332 -180v2220q0 60 -9 99t-29.5 62.5t-53 33t-80.5 9.5h-176v-2109h-316v2347q1 1 24.5 1.5t62 1.5t88.5 1t104.5 1t109.5 1.5t103 1.5q61 0 121 -6.5t114.5 -24t100.5 -48t79.5 -79t52.5 -116.5t19 -160v-2474h-315z" />
    <glyph glyph-name="topatakthai" unicode="&#xe0f;" horiz-adv-x="1184" 
d="M766 -553l-221 197l-221 -205l-222 196v246l222 -196l221 196l221 -196v2220q0 60 -9 99t-29.5 62.5t-53 33t-80.5 9.5h-176v-2109h-316v2347q1 1 24.5 1.5t62 1.5t88.5 1t104.5 1t109.5 1.5t103 1.5q61 0 121 -6.5t114.5 -24t100.5 -48t79.5 -79t52.5 -116.5t19 -160
v-2474h-315z" />
    <glyph glyph-name="thothanthai" unicode="&#xe10;" horiz-adv-x="1147" 
d="M733 -4v1106h-254v254h254v561q0 60 -12 99.5t-34.5 63t-55 33t-74.5 9.5q-38 0 -69 -9.5t-53.5 -33t-35.5 -63t-14 -99.5l-4 -303h-311v323q0 137 44 227t129 139t208.5 60.5t281.5 -8.5v131h311v-2490h-311zM733 -553l-221 197l-221 -205l-221 196v246l221 -196
l221 196l221 -196v188h311v-426h-311z" />
    <glyph glyph-name="thonangmonthothai" unicode="&#xe11;" horiz-adv-x="1217" 
d="M799 0v1954q0 35 -12.5 65t-34.5 52.5t-52 35.5t-65 15q-37 1 -70 -11.5t-58.5 -35.5t-40.5 -54.5t-15 -66.5v-1954h-316v1847q0 71 12 115t33 78q10 18 22 33t27 24q-23 -14 -48 -19t-50 -3.5t-50 8.5t-48 18q-28 10 -55.5 24t-55.5 29l103 218q41 -31 80 -47t75 -22
t69 -3.5t62 10.5q34 9 62 24.5t53 37.5q6 -16 12.5 -30t16.5 -24q9 -21 18.5 -36.5t9.5 -12.5q44 44 108 70t134 31.5t139.5 -10.5t125 -56.5t90 -107t34.5 -160.5v-2036h-315z" />
    <glyph glyph-name="thophuthaothai" unicode="&#xe12;" horiz-adv-x="1847" 
d="M1745 303q0 -91 -37.5 -160t-97.5 -112t-135.5 -60t-152 -3t-146.5 59t-119 125v-156l-291 4v2093l-172 -86l-176 86v-1687q0 -57 19 -96.5t50 -61.5t70.5 -28t81.5 5v-200q-41 -30 -96.5 -44.5t-115.5 -12.5t-118 22.5t-104 61t-74.5 103t-28.5 148.5v1651
q0 72 13.5 128t35.5 99t50 74.5t57 54.5q34 25 73.5 40.5t86.5 25.5l176 -90l172 90q43 -10 83 -25.5t77 -40.5q29 -23 57.5 -54.5t50.5 -74.5t35 -99t12 -128v-1569q0 -37 15.5 -68.5t42 -54t60.5 -35t71 -10.5q35 0 64.5 13t50.5 35.5t33 53.5t12 66v1954h315v-2036z" />
    <glyph glyph-name="nonenthai" unicode="&#xe13;" horiz-adv-x="1847" 
d="M1454 0v152q-49 -80 -119 -125t-146.5 -59t-152 3t-135.5 60t-97.5 112t-37.5 160v1602q0 60 -9 99t-29.5 62.5t-53 33t-80.5 9.5h-176v-2109h-316v2347q1 1 24.5 1.5t62 1.5t88.5 1t104.5 1t109.5 1.5t103 1.5q61 0 121 -6.5t114.5 -24t100.5 -48t79.5 -79t52.5 -116.5
t19 -160v-1536q0 -35 11 -66t31.5 -53.5t49.5 -35.5t64 -13q37 -2 71.5 10.5t61.5 35t43.5 54t16.5 68.5v1954h315v-2339h-291z" />
    <glyph glyph-name="dodekthai" unicode="&#xe14;" horiz-adv-x="1184" 
d="M766 -4v1941q0 60 -12.5 99.5t-35 63t-54.5 33t-70 9.5q-42 0 -74.5 -9.5t-55 -33t-34.5 -63t-12 -99.5v-1536q0 -57 19 -96t50 -61t70.5 -28t81.5 5v-201q-41 -30 -96.5 -44.5t-115.5 -12t-118 23t-104 61t-74.5 103t-28.5 148.5v1655q0 93 18.5 161.5t51.5 117t79 78.5
t100.5 47.5t116 23.5t126.5 6q61 0 121 -6t114.5 -23.5t100.5 -47.5t79.5 -78.5t52.5 -117t19 -161.5v-1958h-315z" />
    <glyph glyph-name="totaothai" unicode="&#xe15;" horiz-adv-x="1184" 
d="M766 -4v2093l-172 -86l-176 86v-1688q0 -57 19 -96t50 -61t70.5 -28t81.5 5v-201q-41 -30 -96.5 -44.5t-115.5 -12t-118 23t-104 61t-74.5 103t-28.5 148.5v1651q0 72 13.5 128t35.5 99t50 74.5t57 54.5q34 25 73.5 40.5t86.5 25.5l176 -91l172 91q43 -10 83 -25.5
t77 -40.5q29 -23 57.5 -54.5t50.5 -74.5t35 -99t12 -128v-1954h-315z" />
    <glyph glyph-name="thothungthai" unicode="&#xe16;" horiz-adv-x="1184" 
d="M766 0v1905q0 60 -9 99t-29.5 62.5t-53 33t-80.5 9.5h-176v-1863h176v-246h-492v2347q1 1 24.5 1.5t62 1.5t88.5 1t104.5 1t109.5 1.5t103 1.5q61 0 121 -6.5t114.5 -24t100.5 -48t79.5 -79t52.5 -116.5t19 -160v-1921h-315z" />
    <glyph glyph-name="thothahanthai" unicode="&#xe17;" horiz-adv-x="1184" 
d="M766 0v1954q0 35 -12 65t-33 52.5t-50.5 35.5t-64.5 15q-37 1 -71 -11t-60 -34.5t-41.5 -54t-15.5 -68.5v-1954h-316v2339h291v-152q49 79 119 123.5t146.5 57t152 -4t135.5 -60t97.5 -111t37.5 -156.5v-2036h-315z" />
    <glyph glyph-name="thothongthai" unicode="&#xe18;" horiz-adv-x="1184" 
d="M1081 401q0 -93 -18.5 -161.5t-52 -117.5t-79.5 -79.5t-100 -48.5t-114.5 -24.5t-122.5 -6.5q-65 0 -126.5 6.5t-116 24.5t-100.5 48.5t-79 79.5t-51.5 117.5t-18.5 161.5v996h316v-979q0 -57 12 -96t34.5 -63.5t55 -35t74.5 -10.5q38 0 70 9.5t54.5 33t35 63t12.5 99.5
v1196h-664v303q0 92 19 160t53 116.5t80 79t100 48t114.5 24t121.5 6.5q48 1 103 1t109 -1t104 -2.5t88.5 -2.5t62 -2t24.5 -1v-246h-475q-51 0 -86.5 -15.5t-58 -40t-34 -53.5t-15.5 -55.5t-1.5 -48t7.5 -29.5h663v-1454z" />
    <glyph glyph-name="nonuthai" unicode="&#xe19;" horiz-adv-x="1184" 
d="M791 0v152q-49 -80 -119.5 -125t-147 -59t-152 3t-135.5 60t-97.5 112t-37.5 160v2036h316v-1954q0 -35 11.5 -66t32.5 -53.5t50.5 -35.5t65.5 -13q37 -2 71 10.5t60 35t41.5 54t15.5 68.5v1954h315v-2339h-290z" />
    <glyph glyph-name="bobaimaithai" unicode="&#xe1a;" horiz-adv-x="1184" 
d="M1081 401q0 -93 -18.5 -161.5t-52 -117.5t-79.5 -79.5t-100 -48.5t-114.5 -24.5t-122.5 -6.5q-65 0 -126.5 6.5t-116 24.5t-100.5 48.5t-79 79.5t-51.5 117.5t-18.5 161.5v1938h316v-1921q0 -57 12 -96t34.5 -63.5t55 -35t74.5 -10.5q38 0 70 9.5t54.5 33t35 63
t12.5 99.5v1921h315v-1938z" />
    <glyph glyph-name="poplathai" unicode="&#xe1b;" horiz-adv-x="1184" 
d="M1081 401q0 -93 -18.5 -161.5t-52 -117.5t-79.5 -79.5t-100 -48.5t-114.5 -24.5t-122.5 -6.5q-65 0 -126.5 6.5t-116 24.5t-100.5 48.5t-79 79.5t-51.5 117.5t-18.5 161.5v1938h316v-1921q0 -57 12 -96t34.5 -63.5t55 -35t74.5 -10.5q38 0 70 9.5t54.5 33t35 63
t12.5 99.5v2515h315v-2532z" />
    <glyph glyph-name="phophungthai" unicode="&#xe1c;" horiz-adv-x="1651" 
d="M1548 401q0 -140 -40 -230.5t-106 -140.5t-151 -64.5t-174 -2.5q-48 6 -83.5 16.5t-62.5 23t-46 26.5t-33 28q-16 16 -27 33.5t-14 36.5q-2 -2 -12 -22t-38 -46.5t-78.5 -53.5t-133.5 -42q-89 -15 -170 -0.5t-142.5 66t-98 143t-36.5 229.5v1512q0 153 34.5 244.5
t104 138t173 57t241.5 2.5v-237q-66 4 -111.5 4.5t-73 -18t-40 -63t-12.5 -128.5v-1512q0 -57 7 -93.5t23 -57.5t41 -29t60 -8q32 0 52.5 10.5t32.5 33t16.5 58t4.5 86.5v1123h316v-1123q0 -57 7 -93.5t23 -57.5t41 -29t60 -8t60 7t40.5 27.5t23 57t7.5 96.5v1938h315v-1938
z" />
    <glyph glyph-name="fofathai" unicode="&#xe1d;" horiz-adv-x="1651" 
d="M1548 401q0 -137 -37 -228.5t-98.5 -144t-142.5 -67.5t-168 2q-89 16 -144.5 54.5t-89.5 84.5q-21 25 -34.5 52.5t-22.5 58.5q-1 0 -5.5 -15.5t-15 -39.5t-29 -53t-47.5 -57t-69.5 -51t-95.5 -34q-89 -15 -170 -0.5t-142.5 66t-98 143t-36.5 229.5v1528q0 106 17 180
t49 122.5t80 75t109 38t136 12.5t162 -2v-237q-55 -5 -99 -5.5t-74.5 -16t-47 -56.5t-16.5 -127v-1512q0 -57 7 -93.5t23 -57.5t41 -29t60 -8q32 0 52.5 8t32.5 29t16.5 57.5t4.5 93.5v1123h316v-1123q0 -57 7 -93.5t23 -57.5t41 -29t60 -8t60 7t40.5 27.5t23 57t7.5 96.5
v2278h315v-2278z" />
    <glyph glyph-name="phophanthai" unicode="&#xe1e;" horiz-adv-x="1651" 
d="M1376 0h-442l-107 2048l-147 -2048h-442l-168 2339h286l111 -1962l156 1962h405l119 -1962l147 1962h287z" />
    <glyph glyph-name="fofanthai" unicode="&#xe1f;" horiz-adv-x="1683" 
d="M1372 0h-438l-107 2048l-147 -2048h-442l-168 2339h286l111 -2003l156 2003h405l119 -2003l172 2257h283z" />
    <glyph glyph-name="phosamphaothai" unicode="&#xe20;" horiz-adv-x="1249" 
d="M836 0l-5 1905q0 60 -9 99t-29.5 62.5t-53 33t-80.5 9.5h-172v-2109h-450v246h135v2101q0 1 22.5 1.5t61 1.5t88 1t104 1t109 1.5t102.5 1.5q61 0 121.5 -6.5t114.5 -24t100 -48t80 -79t53 -116.5t19 -160v-1921h-311z" />
    <glyph glyph-name="momathai" unicode="&#xe21;" horiz-adv-x="1184" 
d="M1081 303q0 -91 -37.5 -160t-97.5 -112t-135.5 -60t-152 -3t-146.5 59t-119 125v-152h-291v2339h316v-1954q0 -37 15.5 -68.5t41.5 -54t60 -35t71 -10.5q35 0 64.5 13t50.5 35.5t33 53.5t12 66v1954h315v-2036z" />
    <glyph glyph-name="yoyakthai" unicode="&#xe22;" horiz-adv-x="1184" 
d="M1081 0q-1 0 -24.5 -1t-62 -2t-88.5 -2.5t-104 -2.5t-109 -1t-103 1q-62 0 -122 6.5t-114 24t-100 48t-80 79t-53 116.5t-19 160v385q-2 57 9 106t30.5 90t45.5 74t55 58q62 56 143 94q2 0 -18 8.5t-51.5 27t-69 49t-69.5 74t-53.5 101.5t-21.5 133v434q11 72 37 121.5
t62 81.5t78.5 50.5t85.5 29.5q52 9 107.5 11t117.5 -7v-225q-1 0 -14.5 1.5t-33 -1.5t-42 -15t-41.5 -39.5t-32 -73.5t-13 -118v-274q0 -57 15.5 -97t40.5 -67t56.5 -42.5t63.5 -23.5q37 -9 80 -9.5t96 5.5v971h315v-2339zM766 1106q-53 3 -96 -0.5t-80 -15.5
q-32 -11 -63 -30.5t-55 -52t-39 -79.5t-15 -113v-373q0 -60 9 -99t29.5 -62.5t53 -33t80.5 -9.5h176v868z" />
    <glyph glyph-name="roruathai" unicode="&#xe23;" horiz-adv-x="1098" 
d="M995 401q0 -140 -35 -225.5t-95.5 -133t-142 -63.5t-173.5 -16q-62 0 -119 6.5t-106.5 24.5t-90.5 48.5t-70 79.5t-45 117.5t-16 161.5v365h316v-348q0 -57 7 -96t23 -63.5t41 -35t60 -10.5t60 9.5t40.5 33t23 63t7.5 99.5v258q0 41 -8.5 71.5t-24 57.5t-38.5 55.5
t-52 65.5l-352 442q-32 42 -52.5 77t-31.5 70.5t-15 73.5t-4 86v262q0 138 35 223.5t96 132.5t142.5 63t173.5 16t173.5 -16t142 -63t95.5 -132.5t35 -223.5v-323h-315v307q0 60 -7.5 99.5t-23 63t-40.5 33t-60 9.5t-60 -9.5t-41 -33t-23 -63t-7 -99.5v-246
q0 -45 12.5 -81.5t31 -67t41 -56.5t42.5 -49l348 -426q35 -43 55.5 -81t31 -75.5t13 -75t2.5 -79.5v-283z" />
    <glyph glyph-name="ruthai" unicode="&#xe24;" horiz-adv-x="1184" 
d="M766 -426v2331q0 60 -9 99t-29.5 62.5t-53 33t-80.5 9.5h-176v-1855h176v-254h-492v2347q1 1 24.5 1.5t62 1.5t88.5 1t104.5 1t109.5 1.5t103 1.5q61 0 121 -6.5t114.5 -24t100.5 -48t79.5 -79t52.5 -116.5t19 -160v-2347h-315z" />
    <glyph glyph-name="lolingthai" unicode="&#xe25;" horiz-adv-x="1184" 
d="M766 -4v1216q-53 4 -98.5 0.5t-85.5 -12.5q-36 -8 -68.5 -21.5t-57.5 -36.5t-40 -57t-15 -81v-603q0 -57 21.5 -96t56 -61t76.5 -28t84 5v-201q-41 -30 -98 -44.5t-118.5 -12t-121.5 23t-108 61t-77.5 103t-29.5 148.5v692q0 97 28 180t83 144t136 96t187 35h246v491
q0 60 -12.5 99.5t-35 63t-54.5 33t-70 9.5q-42 0 -74.5 -9.5t-55 -33t-34.5 -63t-12 -99.5v-200h-299v217q0 93 18 161.5t50 117t76 78.5t97 47.5t112 23.5t122 6q61 0 121 -6t114.5 -23.5t100.5 -47.5t79.5 -78.5t52.5 -117t19 -161.5v-1958h-315z" />
    <glyph glyph-name="luthai" unicode="&#xe26;" horiz-adv-x="1249" 
d="M836 -426l-5 2331q0 60 -9 99t-29.5 62.5t-53 33t-80.5 9.5h-172v-2109h-450v246h135v2101q0 1 22.5 1.5t61 1.5t88 1t104 1t109 1.5t102.5 1.5q61 0 121.5 -6.5t114.5 -24t100 -48t80 -79t53 -116.5t19 -160v-2347h-311z" />
    <glyph glyph-name="wowaenthai" unicode="&#xe27;" horiz-adv-x="1098" 
d="M995 401q0 -140 -35 -225.5t-95.5 -133t-142 -63.5t-173.5 -16q-62 0 -119 6.5t-106.5 24.5t-90.5 48.5t-70 79.5t-45 117.5t-16 161.5v193h316v-176q0 -57 7 -96t23 -63.5t41 -35t60 -10.5t60 9.5t40.5 33t23 63t7.5 99.5v1503q0 60 -7.5 99.5t-23 63t-40.5 33t-60 9.5
t-60 -9.5t-41 -33t-23 -63t-7 -99.5v-307h-316v323q0 138 35 223.5t96 132.5t142.5 63t173.5 16t173.5 -16t142 -63t95.5 -132.5t35 -223.5v-1536z" />
    <glyph glyph-name="sosalathai" unicode="&#xe28;" horiz-adv-x="1184" 
d="M766 0v1991q0 32 -15.5 57t-40 42.5t-55 26.5t-61.5 9q-32 0 -63.5 -9t-56.5 -26.5t-40.5 -42.5t-15.5 -57v-631h221v-254h-221v-1106h-316v2023q0 71 30 128t81 100t118 71.5t141 41t149.5 9.5t144.5 -22v139h315v-2490h-315z" />
    <glyph glyph-name="sorusithai" unicode="&#xe29;" horiz-adv-x="1184" 
d="M1081 1106v-705q0 -93 -18.5 -161.5t-52 -117.5t-79.5 -79.5t-100 -48.5t-114.5 -24.5t-122.5 -6.5q-65 0 -126.5 6.5t-116 24.5t-100.5 48.5t-79 79.5t-51.5 117.5t-18.5 161.5v1938h316v-1921q0 -57 12 -96t34.5 -63.5t55 -35t74.5 -10.5q38 0 70 9.5t54.5 33t35 63
t12.5 99.5v688h-180v254h180v979h315v-979h136v-254h-136z" />
    <glyph glyph-name="sosuathai" unicode="&#xe2a;" horiz-adv-x="1184" 
d="M766 -8v1220q-53 4 -98.5 0.5t-85.5 -12.5q-36 -8 -68.5 -21.5t-57.5 -36.5t-40 -57t-15 -81v-603q0 -57 21.5 -96t56 -61t76.5 -28t84 5v-201q-41 -30 -98 -44.5t-118.5 -12t-121.5 23t-108 61t-77.5 103t-29.5 148.5v692q0 97 28 179.5t83 143t136 94.5t187 34h246v491
q0 60 -12.5 99.5t-35 63t-54.5 33t-70 9.5q-42 0 -74.5 -9.5t-55 -33t-34.5 -63t-12 -99.5v-200h-299v217q0 141 43 233.5t125.5 142t203 59.5t275.5 -13v114h315v-2490z" />
    <glyph glyph-name="hohipthai" unicode="&#xe2b;" horiz-adv-x="1184" 
d="M565 2093v246h492v-246h-492zM766 0v1638q0 36 -12 66.5t-33 53t-50.5 35.5t-64.5 13q-37 1 -71 -11t-60 -34.5t-41.5 -54t-15.5 -68.5v-1638h-316v2339h291v-463q49 77 119 120.5t146.5 56.5t152 -3t135.5 -59t97.5 -111.5t37.5 -159.5v-1720h-315z" />
    <glyph glyph-name="lochulathai" unicode="&#xe2c;" horiz-adv-x="1651" 
d="M1524 401q0 -97 -16.5 -169.5t-46 -124t-70 -83.5t-89 -48.5t-102.5 -18.5t-110 6q-95 16 -150.5 54.5t-83.5 84.5q-15 25 -27 52.5t-18 58.5q-1 0 -5.5 -15.5t-15 -39.5t-29 -53t-47.5 -57t-69.5 -51t-95.5 -34q-89 -15 -170 -0.5t-142.5 66t-98 143t-36.5 229.5v1938
h316v-1938q0 -57 7 -93.5t23 -57.5t41 -29t60 -8q32 0 52.5 9.5t32.5 31t16.5 57.5t4.5 90v1938h316v-1938q0 -57 7.5 -93.5t22.5 -57.5t37.5 -29t51.5 -8t51 4.5t37 23.5t22.5 56.5t7.5 103.5v1414q3 70 -17 108t-48 59q-31 19 -74 25v213q1 1 12.5 1.5t28 5t35.5 15
t34 31.5t23.5 55t5.5 85v122h316v-122q1 -57 -4.5 -100t-15.5 -74.5t-23 -53t-27 -35.5q-15 -15 -35.5 -24t-42.5 -12q25 -13 46.5 -28.5t39.5 -37.5q34 -34 52.5 -90.5t9.5 -142.5v-1414z" />
    <glyph glyph-name="oangthai" unicode="&#xe2d;" horiz-adv-x="1184" 
d="M1081 401q0 -93 -18.5 -161.5t-52 -117.5t-79.5 -79.5t-100 -48.5t-114.5 -24.5t-122.5 -6.5q-65 0 -126.5 6.5t-116 24.5t-100.5 48.5t-79 79.5t-51.5 117.5t-18.5 161.5v959h492v-254h-176v-688q0 -57 12 -96t34.5 -63.5t55 -35t74.5 -10.5q38 0 70 9.5t54.5 33t35 63
t12.5 99.5v1503q0 60 -12.5 99.5t-35 63t-54.5 33t-70 9.5q-42 0 -74.5 -9.5t-55 -33t-34.5 -63t-12 -99.5v-307h-316v323q0 92 18.5 160t51.5 116.5t79 79.5t100.5 48.5t116 24t126.5 6.5q61 0 121 -6.5t114.5 -24t100.5 -48.5t79.5 -79.5t52.5 -116.5t19 -160v-1536z" />
    <glyph glyph-name="honokhukthai" unicode="&#xe2e;" horiz-adv-x="1184" 
d="M1081 401q0 -93 -18.5 -161.5t-52 -117.5t-79.5 -79.5t-100 -48.5t-114.5 -24.5t-122.5 -6.5q-65 0 -126.5 6.5t-116 24.5t-100.5 48.5t-79 79.5t-51.5 117.5t-18.5 161.5v959h492v-254h-176v-688q0 -57 12 -96t34.5 -63.5t55 -35t74.5 -10.5q38 0 70 9.5t54.5 33t35 63
t12.5 99.5v1503q0 60 -12.5 99.5t-35 63t-54.5 33t-70 9.5q-42 0 -74.5 -9.5t-55 -33t-34.5 -63t-12 -99.5v-307h-316v323q0 140 44 232t128.5 142t208 60.5t283.5 -12.5v131h315v-2089z" />
    <glyph glyph-name="paiyannoithai" unicode="&#xe2f;" horiz-adv-x="1184" 
d="M791 0v2097q-60 -81 -137 -120.5t-157.5 -44t-156.5 23t-132.5 81.5t-86.5 131t-19 171h299q7 -49 25 -90q11 -17 23.5 -32.5t30 -27.5t42 -19t60.5 -7q35 0 61 7t45 19t32.5 27.5t24.5 32.5q10 21 14 43t7 47h315v-2339h-290z" />
    <glyph glyph-name="saraathai" unicode="&#xe30;" horiz-adv-x="651" 
d="M262 1589q-90 3 -141 50t-51 143v217h303v-152h213v-258h-324zM262 340q-90 3 -141 50t-51 142v218h303v-156h213v-254h-324z" />
    <glyph glyph-name="maihanakatthai" unicode="&#xe31;" 
d="M-442 2552q-92 0 -149 22.5t-88.5 57.5t-42.5 77t-11 80v140h319q-2 -29 7 -55.5t25 -46t38.5 -31t48.5 -11.5h295v-233h-442z" />
    <glyph glyph-name="saraaathai" unicode="&#xe32;" horiz-adv-x="623" 
d="M205 0v2007q6 43 -12 74q-8 14 -22.5 25.5t-37.5 19t-55.5 10t-77.5 -1.5q-3 0 -1.5 32t1.5 79v110q98 17 172 10.5t129 -28t92 -54t62 -67.5q28 -40 45 -91t20 -110v-2015h-315z" />
    <glyph glyph-name="saraamthai" unicode="&#xe33;" horiz-adv-x="623" 
d="M-4 2728q0 -77 -34.5 -128t-85.5 -76.5t-111.5 -25.5t-111.5 25.5t-85.5 76.5t-34.5 128t34.5 128t85.5 76.5t111.5 25.5t111.5 -25.5t85.5 -76.5t34.5 -128zM205 0v2007q6 43 -12 74q-8 14 -22.5 25.5t-37.5 19t-55.5 10t-77.5 -1.5q-3 0 -1.5 32t1.5 79v110
q98 17 172 10.5t129 -28t92 -54t62 -67.5q28 -40 45 -91t20 -110v-2015h-315zM-147 2728q0 30 -13 49.5t-33 29.5t-42.5 10t-42.5 -10t-33 -29.5t-13 -49.5q0 -29 13 -48t33 -28.5t42.5 -9.5t42.5 9.5t33 28.5t13 48z" />
    <glyph glyph-name="saraithai" unicode="&#xe34;" 
d="M-1081 2552v254h970v-254h-970z" />
    <glyph glyph-name="saraiithai" unicode="&#xe35;" 
d="M-1073 2552v254h733v127h238v-381h-971z" />
    <glyph glyph-name="sarauethai" unicode="&#xe36;" 
d="M-106 2740q0 -65 -25 -102t-59.5 -56.5t-69.5 -24.5t-55 -5h-758v246h581q8 47 40 79t75 47t90.5 12.5t87.5 -25t66.5 -65t26.5 -106.5zM-233 2740q0 35 -22 52.5t-48 17.5t-48 -17.5t-22 -52.5t22 -53t48 -18t48 18t22 53z" />
    <glyph glyph-name="saraueethai" unicode="&#xe37;" 
d="M-1073 2552v254h442v127h213v-127h103v127h213v-381h-971z" />
    <glyph glyph-name="sarauthai" unicode="&#xe38;" 
d="M-393 -553v221h-176v205h467v-426h-291z" />
    <glyph glyph-name="sarauuthai" unicode="&#xe39;" 
d="M-102 -377q0 -52 -35.5 -86t-90 -54t-118.5 -28t-121 -8q-59 0 -122 4.5t-116 22t-89.5 52.5t-41.5 97l-4 41l-147 4v205h426v-164q0 -17 7.5 -28t20.5 -17.5t29 -9t33 -2.5t32.5 2.5t27.5 9t19 17.5t7 28v164h283v-250z" />
    <glyph glyph-name="phinthuthai" unicode="&#xe3a;" 
d="M-283 -487q-60 0 -100.5 27.5t-60.5 68t-20 88.5t20 88.5t60.5 68t100.5 27.5q61 0 102 -27.5t62 -68t20.5 -88.5t-20.5 -88.5t-61.5 -68t-102.5 -27.5z" />
    <glyph glyph-name="PUCR2005" unicode="&#xe3e;" 
 />
    <glyph glyph-name="bahtthai" unicode="&#xe3f;" horiz-adv-x="1217" 
d="M1114 483q0 -126 -36 -210.5t-94.5 -138.5t-134 -82t-153.5 -40v-303h-180v291h-414v3060h414v282h180v-290q66 -12 139.5 -43t135.5 -88t102.5 -145.5t40.5 -215.5v-623q4 -74 -4.5 -130t-27 -98t-44.5 -71t-55 -49q-34 -21 -71 -36t-81 -21q85 -17 149 -67
q27 -21 53 -52t45 -73t29.5 -97t6.5 -125v-635zM799 2568q0 55 -13.5 94.5t-31.5 64t-35 36.5t-23 14v-1040q16 9 30.5 18.5t27.5 22.5q24 24 36 60.5t9 82.5v647zM516 2814h-90v-1122h90v1122zM799 1143q0 52 -16 86.5t-38 56.5q-9 13 -21 22.5t-28 18.5v-1048q31 12 49 36
q22 22 38 60t16 100v668zM516 1372l-90 -4v-1122h90v1126z" />
    <glyph glyph-name="saraethai" unicode="&#xe40;" horiz-adv-x="520" 
d="M102 0v2339h316v-2339h-316z" />
    <glyph glyph-name="saraaethai" unicode="&#xe41;" horiz-adv-x="1004" 
d="M586 0v2339h315v-2339h-315zM102 0v2339h316v-2339h-316z" />
    <glyph glyph-name="saraothai" unicode="&#xe42;" horiz-adv-x="537" 
d="M655 2798q-44 4 -78 1.5t-59.5 -10t-43 -19.5t-28.5 -26q-12 -15 -18.5 -33.5t-9.5 -39.5v-2671h-316v2683q0 -2 2.5 15.5t10.5 46t24 64t43 71.5t67.5 68.5t98 53.5t133.5 27t174 -10v-221z" />
    <glyph glyph-name="saraaimaimuanthai" unicode="&#xe43;" horiz-adv-x="668" 
d="M254 0v2662q6 29 -3 53t-27.5 35.5t-45 7.5t-55.5 -30l-123 156q41 63 101 98.5t125.5 44.5t130 -6.5t113.5 -53t76 -96t19 -135.5v-2736h-311z" />
    <glyph glyph-name="saraaimaimalaithai" unicode="&#xe44;" horiz-adv-x="623" 
d="M205 0v2671q6 43 -12 73q-8 14 -22.5 26t-37.5 19.5t-55.5 10t-77.5 -1.5q-3 0 -1.5 32t1.5 78v111q99 14 174 6.5t129.5 -28.5t92 -52.5t61 -66.5t36.5 -69.5t18.5 -62.5t6.5 -45.5t2 -17.5v-2683h-315z" />
    <glyph glyph-name="lakkhangyaothai" unicode="&#xe45;" horiz-adv-x="725" 
d="M307 -422v2433q6 43 -12 74q-8 14 -22.5 25.5t-37.5 19t-55.5 10t-77.5 -1.5v221q99 17 173 10.5t128.5 -28t92 -54t61.5 -67.5q28 -40 45 -91t21 -110v-2441h-316z" />
    <glyph glyph-name="maiyamokthai" unicode="&#xe46;" horiz-adv-x="1589" 
d="M1176 0v2089l-177 -86l-172 86l-4 -270h-311q-11 100 -3 177.5t28 135t49.5 97.5t61.5 67q76 62 179 76l172 -91l177 91q46 -10 85.5 -25.5t73.5 -40.5q29 -23 57 -54.5t49.5 -74.5t34 -99t11.5 -128v-1950h-311z" />
    <glyph glyph-name="maitaikhuthai" unicode="&#xe47;" 
d="M-578 3019q-45 3 -73.5 -2.5t-45.5 -16t-24 -25t-9 -29.5t-0.5 -29.5t1.5 -24.5v-115l233 148l230 -148v-225l-230 160l-233 -152h-225v467q0 42 17.5 78t47.5 62.5t69.5 41.5t82.5 15h479v-205h-320z" />
    <glyph glyph-name="maiekthai" unicode="&#xe48;" 
d="M-356 3002v332h254v-332h-254z" />
    <glyph glyph-name="maithothai" unicode="&#xe49;" 
d="M-459 3002v172h-151v234h172q45 0 74.5 -13t47 -33t25.5 -44t10.5 -45.5t2 -37.5t-0.5 -20h267v-213h-447z" />
    <glyph glyph-name="maitrithai" unicode="&#xe4a;" 
d="M-455 3002v111l-139 -70l-143 70v-111h-250q-5 57 4 102t26 79.5t40.5 59.5t48.5 42q28 22 61 34.5t70 18.5l143 -69l139 69q22 0 41.5 -3.5t40.5 -12.5q17 -8 35 -19t35.5 -28t33 -40.5t27.5 -56.5h140v-176h-353z" />
    <glyph glyph-name="maichattawathai" unicode="&#xe4b;" 
d="M-160 3125v-123h-221v123h-127v185h127v118h221v-118h127v-185h-127z" />
    <glyph glyph-name="thanthakhatthai" unicode="&#xe4c;" 
d="M16 3117q-26 0 -48 -11t-38 -30t-25 -45t-7 -57h-320v139q0 40 10 82t41 76.5t87.5 57t148.5 22.5h131q24 0 47 0.5t41 1.5t29.5 1.5t13.5 0.5v-238h-111z" />
    <glyph glyph-name="nikhahitthai" unicode="&#xe4d;" 
d="M-25 2728q0 -77 -34 -128t-85 -76.5t-110 -25.5t-110 25.5t-85 76.5t-34 128t34 128t85 76.5t110 25.5t110 -25.5t85 -76.5t34 -128zM-164 2728q0 30 -13.5 49.5t-33.5 29.5t-43 10t-43 -10t-33.5 -29.5t-13.5 -49.5q0 -29 13.5 -48t33.5 -28.5t43 -9.5t43 9.5t33.5 28.5
t13.5 48z" />
    <glyph glyph-name="yamakkanthai" unicode="&#xe4e;" 
d="M-82 2884q-59 0 -97.5 -54.5t-41.5 -150.5q0 -6 1 -29.5t6 -54.5t15.5 -65.5t30.5 -63.5h-233q-19 29 -29.5 61.5t-16 60t-7 46t-1.5 20.5q0 59 13.5 109t34 89.5t43.5 69t42 49.5t30.5 30t8.5 10q-6 0 -33.5 19t-58.5 58.5t-55.5 101.5t-24.5 148v18t4 41t13.5 52.5
t27.5 52.5h234q-17 -24 -26 -54.5t-13.5 -58t-5 -48.5t-0.5 -27q3 -95 41.5 -135.5t97.5 -40.5v-254z" />
    <glyph glyph-name="fongmanthai" unicode="&#xe4f;" horiz-adv-x="2662" 
d="M2499 1167q0 -161 -42 -310t-118 -278.5t-183 -236t-236.5 -182.5t-278.5 -118t-310 -42t-310 42t-278.5 118t-236 182.5t-182.5 236t-118 278.5t-42 310t42 310t118 278.5t182.5 236.5t236 183t278.5 118t310 42t310 -42t278.5 -118t236.5 -183t183 -236.5t118 -278.5
t42 -310zM2265 1167q0 128 -33.5 247t-94.5 222.5t-147 189.5t-189.5 147t-222.5 94.5t-247 33.5t-247 -33.5t-222.5 -94.5t-189.5 -147t-147 -189.5t-94.5 -222.5t-33.5 -247t33.5 -247t94.5 -222.5t147 -189.5t189.5 -147t222.5 -94.5t247 -33.5t247 33.5t222.5 94.5
t189.5 147t147 189.5t94.5 222.5t33.5 247zM2032 1167q0 -96 -25 -185.5t-70.5 -167t-109 -141.5t-141.5 -110t-168 -71t-187 -25q-96 0 -185.5 25t-167 71t-141.5 110t-110 141.5t-71 167t-25 185.5q0 97 25 187t71 168t110 141.5t141.5 109t167 70.5t185.5 25
q146 0 273.5 -55t222.5 -150t150 -222.5t55 -273.5zM1855 1167q0 109 -41 204.5t-112 167t-166.5 112.5t-204.5 41t-204.5 -41t-166.5 -112.5t-112 -167t-41 -204.5t41 -204.5t112 -166.5t166.5 -112t204.5 -41t204.5 41t166.5 112t112 166.5t41 204.5z" />
    <glyph glyph-name="zerothai" unicode="&#xe50;" horiz-adv-x="1278" 
d="M1090 393q0 -97 -36 -173.5t-98 -130t-144.5 -81.5t-176.5 -28q-92 0 -172.5 28t-140.5 81.5t-94.5 130t-34.5 173.5v1135q0 97 34.5 173.5t94.5 130t140.5 82t172.5 28.5q94 0 176.5 -28.5t144.5 -82t98 -130t36 -173.5v-1135zM803 1544q0 35 -12.5 66t-34.5 53.5
t-52 35.5t-65 13t-65 -12.5t-52 -34.5t-34.5 -52t-12.5 -65v-1175q0 -35 12.5 -65t34.5 -52t52 -34.5t65 -12.5t65 13t52 35.5t34.5 53.5t12.5 66v1167z" />
    <glyph glyph-name="onethai" unicode="&#xe51;" horiz-adv-x="1278" 
d="M1090 319q0 -66 -25.5 -124t-69 -101.5t-101.5 -68.5t-124 -25h-532v246h483q17 0 32 7t26 19t17.5 27.5t6.5 32.5v1212q0 35 -12.5 66t-34.5 53.5t-52 35.5t-65 13t-65 -13t-52 -35.5t-34.5 -53.5t-12.5 -66v-635q0 -61 66 -61h94v-230h-152q-60 0 -112.5 23t-92 63
t-62.5 92.5t-23 112.5v615q0 97 34.5 174.5t94.5 131.5t140.5 83t172.5 29q94 0 176.5 -29t144.5 -83t98 -131.5t36 -174.5v-1205z" />
    <glyph glyph-name="twothai" unicode="&#xe52;" horiz-adv-x="1675" 
d="M1483 324q0 -66 -24.5 -125t-67.5 -103.5t-100.5 -70t-123.5 -25.5h-655q-66 0 -124 25.5t-101.5 70t-68.5 103.5t-25 125v2015h286v-1995q0 -46 28 -72t75 -26h516q46 0 74 26t28 72v1360l-164 -94l-168 94v-795q0 -61 66 -61h98v-230h-143q-60 0 -113 23t-92.5 63
t-62.5 92.5t-23 112.5v631q0 69 18 132t51 116t81 94.5t108 67.5l180 -103l176 103q60 -25 110 -66t85.5 -94.5t55.5 -117t20 -132.5v-1216z" />
    <glyph glyph-name="threethai" unicode="&#xe53;" horiz-adv-x="1741" 
d="M1257 0v1532q0 55 -9 89.5t-25.5 53.5t-40 26t-52.5 7t-50.5 -7.5t-35.5 -27t-21 -53.5t-7 -88v-909h-287v909q0 95 -29 135.5t-90 40.5q-35 0 -59 -7.5t-38 -27t-20 -53.5t-6 -88v-1131q0 -80 12 -121.5t39 -59t70 -17t105 5.5v-225q-131 -8 -228.5 2.5t-162 55
t-97 130.5t-32.5 229v1123q0 132 34.5 217.5t92.5 133t133.5 61t156.5 1.5q53 -8 92 -23t66 -32.5t43.5 -35.5t26 -32.5t13.5 -23.5t5 -8q3 18 14.5 34t26.5 31q25 25 75.5 50t137.5 40q81 12 160.5 -2t142 -62t101 -133.5t38.5 -215.5v-1524h-295z" />
    <glyph glyph-name="fourthai" unicode="&#xe54;" horiz-adv-x="1556" 
d="M1434 1921q0 -57 -21.5 -107t-59 -87t-87.5 -58.5t-107 -21.5h-557q-26 0 -48.5 -9.5t-39 -26t-26 -39t-9.5 -48.5v-1147q0 -29 10.5 -56t28.5 -47.5t42.5 -32.5t53.5 -12h136v664q0 97 14.5 166.5t43 116.5t72 74.5t101 41t130 16t159.5 -0.5v-226q-62 5 -105.5 5.5
t-71 -17t-40.5 -59t-13 -121.5v-647h258v-242h-659q-92 0 -173.5 23t-142 70.5t-95.5 119t-35 168.5v1135q0 97 28.5 173t82 128.5t129 80t169.5 27.5h483q66 0 66 62v352h283v-418z" />
    <glyph glyph-name="fivethai" unicode="&#xe55;" horiz-adv-x="1556" 
d="M1434 1937q0 -57 -21.5 -106.5t-59 -87t-87.5 -59t-107 -21.5h-577q-47 0 -75 -28t-28 -74v-1196q0 -29 10.5 -54t28.5 -43t42.5 -28.5t53.5 -10.5h136v664q0 97 14.5 166.5t43 116.5t72 74.5t101 41t130 16t159.5 -0.5v-226q-62 5 -105.5 5.5t-71 -17t-40.5 -59
t-13 -121.5v-647h258v-242h-659q-92 0 -173.5 21.5t-142 66.5t-95.5 114.5t-35 166.5v1261q0 60 25 114t66.5 95.5t96.5 65.5t115 24q0 67 25 126.5t69.5 103t104 69t128.5 25.5q68 0 127.5 -26t104 -70.5t70.5 -104.5t26 -127v414h283v-402zM946 1937q0 25 -9.5 46.5
t-25.5 37.5t-37.5 25.5t-46.5 9.5q-24 0 -45.5 -9.5t-37.5 -25.5t-25.5 -37.5t-9.5 -46.5q0 -24 9.5 -45.5t25.5 -37.5t37.5 -25.5t45.5 -9.5q25 0 46.5 9.5t37.5 25.5t25.5 37.5t9.5 45.5z" />
    <glyph glyph-name="sixthai" unicode="&#xe56;" horiz-adv-x="1339" 
d="M1159 385q0 -97 -36 -172.5t-99.5 -127t-149.5 -78.5t-186 -27q-97 0 -182 27t-148.5 78.5t-100 127t-36.5 172.5v139q0 143 30.5 229t92.5 130.5t157 55.5t224 3v-221q-62 4 -104.5 4t-69.5 -18t-39 -60.5t-12 -122.5v-147q0 -35 15.5 -64.5t41.5 -50.5t60 -33t71 -12
q39 0 73 12t60 33t41 50.5t15 64.5v1147q0 48 -16.5 82.5t-46 57t-71 33.5t-92.5 11q-54 0 -95.5 -10.5t-70.5 -36t-44 -69t-15 -109.5h-283v856h283v-443q37 14 70.5 20t68 8t70.5 1.5t78 -0.5q94 0 175.5 -28.5t141.5 -82t94.5 -130t34.5 -173.5v-1126z" />
    <glyph glyph-name="seventhai" unicode="&#xe57;" horiz-adv-x="1753" 
d="M1548 336q0 -80 -30 -143.5t-82.5 -108t-122.5 -68.5t-150 -24l-385 8v1700l-151 -90l-156 90v-1409q0 -25 19 -43.5t47 -18.5h90v-237h-152q-60 0 -113.5 24t-94 65.5t-64 95.5t-23.5 114v1249q0 69 19 132t54 116t84 94.5t109 67.5l181 -103l176 103q60 -25 109 -66
t84 -94.5t54 -117t19 -132.5v-1307q28 0 62 0.5t64 8.5t50.5 27.5t20.5 58.5v2011h282v-2003z" />
    <glyph glyph-name="eightthai" unicode="&#xe58;" horiz-adv-x="1733" 
d="M1577 1925q0 -57 -21.5 -102.5t-60 -77.5t-90 -49t-111.5 -17h-749q-25 0 -45.5 -18t-20.5 -43v-1229q0 -55 9.5 -89.5t26.5 -53.5t41.5 -26t53.5 -7t50.5 7.5t36 27t21.5 53.5t7 88v459h291v-459q0 -95 26.5 -135.5t87.5 -40.5q36 0 59.5 7.5t37.5 27t20 53.5t6 88v492
q0 80 -11.5 121.5t-37.5 59t-68.5 16.5t-103.5 -5v225q129 8 226.5 -2.5t162.5 -55t98 -130.5t33 -229v-484q0 -132 -34 -217.5t-92 -133t-134.5 -61t-161.5 -1.5q-54 8 -93 23t-65.5 32.5t-42.5 35.5t-25 32.5t-13 23.5t-6 8q-12 -36 -41 -65q-25 -25 -75.5 -51.5
t-133.5 -38.5q-86 -12 -165.5 2t-141 62t-98.5 133t-37 216v1213q0 66 24.5 123t67 98.5t100 65.5t123.5 24h786v418h283v-414z" />
    <glyph glyph-name="ninethai" unicode="&#xe59;" horiz-adv-x="1585" 
d="M1495 0h-270l-418 1548q-44 156 -172 156q-32 0 -61 -12.5t-51 -33.5t-35 -49.5t-13 -60.5v-1142q0 -60 6.5 -98.5t22.5 -60t42 -30t64 -8.5q13 0 34.5 0.5t55.5 3.5v-225q-139 -6 -235.5 9t-149.5 52q-62 47 -92 136t-30 229v1069q0 92 34.5 172.5t94.5 140.5
t140.5 94.5t172.5 34.5q170 0 299 -123l119 119h159v418h275v-672h-320l-94 -94z" />
    <glyph glyph-name="angkhankhuthai" unicode="&#xe5a;" horiz-adv-x="1716" 
d="M1323 0v2339h291v-2339h-291zM791 0v2097q-60 -81 -137 -120.5t-157.5 -44t-156.5 23t-132.5 81.5t-86.5 131t-19 171h299q7 -49 25 -90q11 -17 23.5 -32.5t30 -27.5t42 -19t60.5 -7q35 0 61 7t45 19t32.5 27.5t24.5 32.5q10 21 14 43t7 47h315v-2339h-290z" />
    <glyph glyph-name="khomutthai" unicode="&#xe5b;" horiz-adv-x="3662" 
d="M2413 807l-144 192l-389 -553l-414 586l-286 -610q-37 -81 -74.5 -157.5t-84.5 -135t-109.5 -94t-149.5 -35.5h-238q-87 0 -164 33t-134.5 90t-90.5 134t-33 165v1044q0 88 33 165t90.5 134t134.5 90t164 33h74q87 0 164 -33t134.5 -90t90.5 -134t33 -165v-442h-266v451
q0 30 -11.5 58t-31.5 49.5t-47 34.5t-58 13h-90q-31 0 -57.5 -13t-46.5 -34.5t-31.5 -49.5t-11.5 -58v-1061q0 -31 11.5 -59t31.5 -49.5t46.5 -34.5t57.5 -13h242q29 0 51 14.5t39.5 37t31 50.5t25.5 54l512 1097l459 -663l397 573l254 -372h991v-242h-1105z" />
    <glyph glyph-name="saraulowthai" unicode="&#xf718;" 
d="M-393 -1008v222h-176v204h467v-426h-291z" />
    <glyph glyph-name="sarauulowthai" unicode="&#xf719;" 
d="M-102 -831q0 -53 -35.5 -87t-90 -54t-118.5 -28t-121 -8q-59 0 -122 4.5t-116 22.5t-89.5 53t-41.5 97l-4 40l-147 5v204h426v-163q0 -17 7.5 -28.5t20.5 -18t29 -9t33 -2.5t32.5 2.5t27.5 9t19 18t7 28.5v163h283v-249z" />
    <glyph glyph-name="phinthulowthai" unicode="&#xf71a;" 
d="M-283 -938q-60 0 -100.5 27.5t-60.5 68.5t-20 88.5t20 88.5t60.5 68.5t100.5 27.5q61 0 102 -27.5t62 -68.5t20.5 -88.5t-20.5 -88.5t-61.5 -68.5t-102.5 -27.5z" />
    <glyph glyph-name="rulakkhangyao" unicode="&#xf881;" horiz-adv-x="1757" 
d="M1335 -430v2429q3 18 2 34t-10 31q-12 25 -43.5 45.5t-95.5 20.5h-144q37 -84 37 -209v-2347h-315v2331q0 60 -9 99t-29.5 62.5t-53 33t-80.5 9.5h-176v-1855h176v-254h-492v2347h410q183 0 364.5 3t364.5 9q78 1 137.5 -12t103 -37t72.5 -56t48 -67q21 -40 33.5 -83.5
t15.5 -96.5v-2437h-316z" />
    <glyph glyph-name="lulakkhangyao" unicode="&#xf882;" horiz-adv-x="1815" 
d="M1401 -430v2429q3 18 2 34t-10 31q-6 12 -17 24t-27.5 21.5t-40 15t-55.5 5.5h-143q37 -84 37 -209v-2347h-311l-5 2331q0 60 -9 99t-29.5 62.5t-53 33t-80.5 9.5h-172v-2109h-450v246h135v2101q284 0 567.5 1.5t567.5 10.5q78 1 137.5 -12t102.5 -37t72.5 -56t47.5 -67
q22 -40 34 -83.5t15 -96.5v-2437h-315z" />
    <glyph glyph-name="lochula.short" unicode="&#xf71d;" horiz-adv-x="1651" 
d="M1524 401q0 -97 -16.5 -169.5t-46 -124t-70 -83.5t-89 -48.5t-102.5 -18.5t-110 6q-95 16 -150.5 54.5t-83.5 84.5q-15 25 -27 52.5t-18 58.5q-1 0 -5.5 -15.5t-15 -39.5t-29 -53t-47.5 -57t-69.5 -51t-95.5 -34q-89 -15 -170 -0.5t-142.5 66t-98 143t-36.5 229.5v1938
h316v-1938q0 -57 7 -93.5t23 -57.5t41 -29t60 -8q32 0 52.5 9.5t32.5 31t16.5 57.5t4.5 90v1938h316v-1938q0 -57 7.5 -93.5t22.5 -57.5t37.5 -29t51.5 -8t51 4.5t37 23.5t22.5 56.5t7.5 103.5v1414q3 70 -17 108t-48 59q-31 19 -74 25v213q1 1 12.5 1.5t28 5t35.5 15
t34 31.5t23.5 55t5.5 85v122h316v-122q1 -57 -4.5 -100t-15.5 -74.5t-23 -53t-27 -35.5q-15 -15 -35.5 -24t-42.5 -12q25 -13 46.5 -28.5t39.5 -37.5q34 -34 52.5 -90.5t9.5 -142.5v-1414z" />
    <glyph glyph-name="uni25CC" unicode="&#x25cc;" horiz-adv-x="2744" 
d="M1061 733l-197 -61l70 192q28 -40 59 -71.5t68 -59.5zM1278 1692l94 184l90 -180q-21 3 -42.5 3.5t-43.5 0.5q-25 0 -49 -2.5t-49 -5.5zM1454 639l-82 -172l-86 172q22 -3 45.5 -5.5t44.5 -2.5q22 0 41 2.5t37 5.5zM1905 1257l172 -90l-172 -77q3 18 5.5 37t2.5 40
q0 22 -2.5 45.5t-5.5 44.5zM852 1081l-184 95l184 90q-3 -25 -5.5 -49.5t-2.5 -49.5q0 -21 2.5 -42.5t5.5 -43.5zM946 1487l-53 188l184 -65q-40 -25 -71.5 -55.5t-59.5 -67.5zM1802 840l49 -168l-168 53q35 25 64.5 53t54.5 62zM1679 1610l201 65l-70 -192q-27 37 -58.5 68
t-72.5 59z" />
    <glyph glyph-name="yamakkanleftthai" 
d="M-487 2884q-29 0 -54.5 -14t-45 -40.5t-31.5 -64.5t-13 -86q3 -8 4.5 -30.5t6 -53t15 -64.5t32.5 -65h-234q-18 29 -29 61.5t-16 60t-6.5 46t-1.5 20.5q-3 59 9.5 109t33 89.5t44.5 69t43.5 49.5t31 30t6.5 10t-20 8.5t-34 25.5t-40 43.5t-38 63t-28.5 83t-11.5 103.5v18
t4.5 41t14.5 52.5t30 52.5h233q-18 -24 -27.5 -54.5t-13.5 -58t-4 -48.5v-27q-2 -48 9 -81.5t30.5 -54.5t45.5 -30.5t55 -9.5v-254z" />
    <glyph glyph-name="copyright" unicode="&#xa9;" horiz-adv-x="2626" 
d="M2478 1167q0 -161 -42 -310t-118 -278.5t-182.5 -236t-236 -182.5t-278.5 -118t-310 -42t-310 42t-278.5 118t-236.5 182.5t-183 236t-118 278.5t-42 310t42 310t118 278.5t183 236.5t236.5 183t278.5 118t310 42t310 -42t278.5 -118t236 -183t182.5 -236.5t118 -278.5
t42 -310zM2257 1167q0 131 -33.5 252.5t-95 226.5t-148 191.5t-191.5 148t-226 95t-252 33.5t-252 -33.5t-226.5 -95t-191.5 -148t-147.5 -191.5t-95 -226.5t-33.5 -252.5t33.5 -252t95 -226t147.5 -191.5t191.5 -148t226.5 -95t252 -33.5t252 33.5t226 95t191.5 148
t148 191.5t95 226t33.5 252zM1659 700q0 -86 -31 -140.5t-79.5 -86t-107.5 -43.5t-114 -12q-38 0 -77.5 5t-77 17t-70.5 33t-57.5 52t-39 74.5t-14.5 100.5v922q0 84 31.5 138.5t80 85.5t108 43t116.5 12q37 0 76 -4.5t76 -16t69.5 -31.5t57 -51t39 -74.5t14.5 -101.5v-209
h-213v197q0 32 -11.5 54.5t-29.5 37t-39 21t-39 6.5q-20 0 -41.5 -6.5t-39.5 -21t-30 -37t-12 -54.5v-901q0 -32 12 -55t30 -37t39.5 -20.5t41.5 -6.5q18 0 39 7t39 21.5t29.5 37t11.5 53.5v118h213v-127z" />
    <glyph glyph-name="registered" unicode="&#xae;" horiz-adv-x="2626" 
d="M2478 1167q0 -161 -42 -310t-118 -278.5t-182.5 -236t-236 -182.5t-278.5 -118t-310 -42t-310 42t-278.5 118t-236.5 182.5t-183 236t-118 278.5t-42 310t42 310t118 278.5t183 236.5t236.5 183t278.5 118t310 42t310 -42t278.5 -118t236 -183t182.5 -236.5t118 -278.5
t42 -310zM2257 1167q0 131 -33.5 252.5t-95 226.5t-148 191.5t-191.5 148t-226 95t-252 33.5t-252 -33.5t-226.5 -95t-191.5 -148t-147.5 -191.5t-95 -226.5t-33.5 -252.5t33.5 -252t95 -226t147.5 -191.5t191.5 -148t226.5 -95t252 -33.5t252 33.5t226 95t191.5 148
t148 191.5t95 226t33.5 252zM1393 463v561q0 23 -1.5 39t-9 26.5t-22.5 15.5t-41 5h-29v-647h-213v1433l242 5q84 1 139 -16t87 -50.5t44.5 -82.5t12.5 -110v-245q0 -45 -2 -78.5t-8 -58.5t-16.5 -42.5t-27.5 -29.5q12 -12 22 -29t17 -40.5t11 -54.5t4 -73v-528h-209z
M1393 1647q0 23 -3 38t-11 23.5t-22.5 12t-37.5 3.5h-29v-442h29q26 0 41 8t22.5 22t9 34t1.5 43v258z" />
    <glyph glyph-name="trademark" unicode="&#x2122;" horiz-adv-x="2003" 
d="M1659 1221l4 1597l-176 -1597h-225l-172 1597v-1597h-185v1835h287l184 -1655l185 1655h282v-1835h-184zM496 2884v-1663h-193v1663h-225v172h643v-172h-225z" />
    <glyph glyph-name="multiply" unicode="&#xd7;" horiz-adv-x="1954" 
d="M1573 360l-598 594l-594 -594l-205 201l594 598l-594 594l205 205l594 -594l598 594l205 -205l-598 -594l598 -598z" />
    <glyph glyph-name="divide" unicode="&#xf7;" horiz-adv-x="2040" 
d="M1032 1524q-62 0 -102.5 27t-61.5 67.5t-20.5 87.5t20.5 87.5t61.5 67.5t102.5 27q60 0 100.5 -27t60.5 -67.5t20 -87.5t-20 -87.5t-60.5 -67.5t-100.5 -27zM119 1126v238h1802v-238h-1802zM1032 598q-62 0 -102.5 27.5t-61.5 68.5t-20.5 88.5t20.5 88.5t61.5 68.5
t102.5 27.5q60 0 100.5 -27.5t60.5 -68.5t20 -88.5t-20 -88.5t-60.5 -68.5t-100.5 -27.5z" />
    <glyph glyph-name="ZWSP" unicode="&#x200b;" 
 />
    <glyph glyph-name="yoyingthai" unicode="&#xe0d;" horiz-adv-x="1847" 
d="M1745 0q1 -107 -31.5 -179.5t-81.5 -119.5t-106.5 -72.5t-107 -37t-82.5 -14t-33 -3.5h-537v254h537q21 3 40 7t37 13q17 8 31 19.5t24.5 29t16.5 43t6 60.5v152q-49 -80 -119 -125t-146.5 -59t-152 3t-135.5 60t-97.5 112t-37.5 160v1602q0 60 -9 99t-29.5 62.5t-53 33
t-80.5 9.5h-176v-2109h-320v2347q1 1 24.5 1.5t62 1.5t89 1t105.5 1t110.5 1.5t104.5 1.5q61 0 121 -6.5t114.5 -24t100.5 -48t79.5 -79t52.5 -116.5t19 -160v-1536q0 -71 44.5 -115t115.5 -53q37 -5 71 7t60 35.5t42 56t16 69.5v1954h311v-2339z" />
    <glyph glyph-name="sterling" unicode="&#xa3;" horiz-adv-x="1683" 
d="M1565 295q-26 -68 -62 -127.5t-84.5 -104t-111 -70.5t-140.5 -26q-95 0 -177 28.5t-159 65.5q-37 22 -73.5 38.5t-73.5 31.5q-37 16 -73 24.5t-70 8.5q-32 0 -57 -11.5t-44.5 -29.5t-33.5 -40.5t-25 -45.5l-258 102q12 61 44 116.5t77 97t101 63.5t118 18l82 -4
q49 84 73.5 170t24.5 182q0 69 -19 152t-49 173.5t-67 185t-74 186.5h-364v245h262q-10 25 -17 47t-16 44q-46 120 -70 249t-24 263q0 178 48 322t141 245t230.5 156t317.5 55q135 0 242 -38t183.5 -109.5t121 -174t55.5 -231.5l-254 -123q0 77 -18 150t-59.5 129.5t-109 91
t-165.5 34.5t-174 -32.5t-127.5 -90t-78 -136.5t-26.5 -171q0 -69 8 -142t22.5 -146t34 -145.5t42.5 -139.5q9 -25 19 -52t22 -55h643v-245h-553q29 -78 54.5 -157t44 -155.5t29.5 -151t11 -143.5q0 -123 -24.5 -249.5t-89.5 -253.5q52 -25 91 -45t77 -41q73 -37 159 -37
q36 0 62.5 13t46.5 33.5t34 45t25 47.5z" />
    <glyph glyph-name="yen" unicode="&#xa5;" horiz-adv-x="1393" 
d="M967 1786h356v-254h-426l-49 -168v-70h475v-254h-475v-1040h-303v1040h-475v254h475v70l-49 168h-426v254h352l-365 1274h316l319 -1237l320 1237h315z" />
    <glyph glyph-name="cent" unicode="&#xa2;" horiz-adv-x="1106" 
d="M913 905q0 -94 -20.5 -157t-56.5 -102.5t-86.5 -59t-110.5 -25.5v-274h-168v274q-57 6 -106.5 25.5t-85.5 59t-57 102.5t-21 157v1229q0 94 19.5 157t55.5 102.5t85.5 59t109.5 25.5v275h168v-275q58 -8 108.5 -26.5t87 -57.5t57.5 -102t21 -158v-258h-249v246
q0 48 -6 79.5t-18.5 50t-33 26.5t-49.5 8t-49.5 -8t-33 -26.5t-18 -50t-5.5 -79.5v-1200q0 -48 5.5 -79.5t18 -50t33 -26.5t49.5 -8t49.5 8t33 26.5t18.5 50t6 79.5v139h249v-156z" />
    <glyph glyph-name="Euro" unicode="&#x20ac;" horiz-adv-x="1520" 
d="M1417 451q0 -92 -20.5 -164t-57.5 -126.5t-88 -92t-111.5 -61t-128.5 -34t-139 -10.5q-103 0 -195 24.5t-161.5 81.5t-110 150.5t-40.5 231.5v712h-336v254h336v238h-336v254h336v684q0 140 40 236t109 155.5t161.5 86t196.5 26.5q61 0 125.5 -11.5t125 -36.5t114 -64.5
t93.5 -95.5t63.5 -129.5t23.5 -166.5v-467h-311v475q0 60 -18 106t-49.5 77t-74.5 47t-92 16q-96 0 -144 -62.5t-48 -183.5v-692h426v-254h-426v-238h426v-254h-426v-721q0 -114 51.5 -171.5t140.5 -57.5q48 0 90.5 13.5t74.5 41.5t50.5 71t18.5 103v443h311v-434z" />
    <glyph glyph-name="onequarter" unicode="&#xbc;" horiz-adv-x="1577" 
d="M225 1511v1287q-34 -47 -76.5 -80.5t-82.5 -42.5v172q46 28 87.5 81.5t75.5 131.5h185v-1549h-189zM545 0h-205l569 3060h205zM1393 291v-291h-189v291h-381v180l312 1077h258v-1097h114v-160h-114zM1204 1188l-192 -737h188z" />
    <glyph glyph-name="onehalf" unicode="&#xbd;" horiz-adv-x="1577" 
d="M225 1511v1287q-34 -47 -76.5 -80.5t-82.5 -42.5v172q46 28 87.5 81.5t75.5 131.5h185v-1549h-189zM508 0h-205l569 3060h205zM918 0v168l335 741l37 74q12 38 16.5 77.5t5 79.5t-1 80.5t0.5 82.5q0 49 -28 77.5t-75 28.5q-46 0 -74 -28.5t-28 -77.5v-148h-188v139
q0 75 24 127t64.5 84t92.5 46t109 14q49 0 100.5 -14t94 -45.5t69.5 -82.5t27 -125v-258q0 -15 -2.5 -30.5t-5.5 -30.5q-3 -9 -3.5 -16t-0.5 -13q-8 -23 -13.5 -37.5t-10 -23.5t-9 -14.5t-8.5 -10.5l-311 -692h381v-172h-598z" />
    <glyph glyph-name="threequarters" unicode="&#xbe;" horiz-adv-x="1577" 
d="M606 1765q0 -69 -22.5 -115.5t-60.5 -74t-87.5 -39.5t-103.5 -12t-103.5 12t-88 39.5t-61 74t-22.5 115.5v119h156v-123q0 -29 9.5 -50.5t25.5 -35.5t37.5 -21t46.5 -7q23 0 44.5 7t38 21t26.5 35.5t10 50.5v365q-3 42 -18 68t-36 40.5t-45 20t-46 6t-39.5 -1.5t-24.5 -2
v127q20 0 51.5 1t63.5 12.5t58.5 38.5t35.5 79v311q0 59 -35 91t-84 32q-50 0 -84.5 -32t-34.5 -91v-127h-156v123q0 69 23.5 116.5t63 77.5t90.5 43t106 13q45 0 91.5 -13t84.5 -43t62 -77.5t24 -116.5q1 0 2 -13t1.5 -34t0.5 -48v-56q0 -34 -0.5 -71t-3.5 -77
q3 -59 -17.5 -97t-47.5 -63q-16 -15 -34 -25t-40 -20q22 -9 40 -18.5t34 -22.5q27 -21 47.5 -61.5t17.5 -101.5zM618 0h-208l569 3060h209zM1397 291v-291h-193v291h-377v180l308 1077h258v-1097h118v-160h-114zM1204 1188l-192 -737h192v737z" />
    <glyph glyph-name="saraamleft" horiz-adv-x="623" 
d="M-492 2728q0 -77 -34 -128t-85.5 -76.5t-111.5 -25.5t-111.5 25.5t-85.5 76.5t-34 128t34 128t85.5 76.5t111.5 25.5t111.5 -25.5t85.5 -76.5t34 -128zM205 0v2007q6 43 -12 74q-8 14 -22.5 25.5t-37.5 19t-55.5 10t-77.5 -1.5q-3 0 -1.5 32t1.5 79v110q98 17 172 10.5
t129 -28t92 -54t62 -67.5q28 -40 45 -91t20 -110v-2015h-315zM-635 2728q0 45 -27.5 67t-60.5 22t-60.5 -22t-27.5 -67q0 -43 27.5 -64.5t60.5 -21.5t60.5 21.5t27.5 64.5z" />
    <glyph glyph-name="uni0E33.alt1" horiz-adv-x="623" 
d="M-492 2728q0 -77 -34 -128t-85.5 -76.5t-111.5 -25.5t-111.5 25.5t-85.5 76.5t-34 128t34 128t85.5 76.5t111.5 25.5t111.5 -25.5t85.5 -76.5t34 -128zM205 0v2007q6 43 -12 74q-8 14 -22.5 25.5t-37.5 19t-55.5 10t-77.5 -1.5q-3 0 -1.5 32t1.5 79v110q98 17 172 10.5
t129 -28t92 -54t62 -67.5q28 -40 45 -91t20 -110v-2015h-315zM-635 2728q0 45 -27.5 67t-60.5 22t-60.5 -22t-27.5 -67q0 -43 27.5 -64.5t60.5 -21.5t60.5 21.5t27.5 64.5z" />
    <glyph glyph-name="guillemotleft" unicode="&#xab;" horiz-adv-x="1733" 
d="M1319 500l-676 1016l676 1011h278l-532 -1011l532 -1016h-278zM811 500l-676 1016l676 1011h279l-533 -1011l533 -1016h-279z" />
    <glyph glyph-name="guillemotright" unicode="&#xbb;" horiz-adv-x="1733" 
d="M922 500h-279l533 1016l-533 1011h279l675 -1011zM418 500h-283l533 1016l-533 1011h283l672 -1011z" />
    <glyph glyph-name="maiekupperleftthai.alt9" 
d="M-845 3002v332h254v-332h-254z" />
    <glyph glyph-name="maithoupperleftthai.alt9" 
d="M-833 3002v152h-139v209h188q36 0 63.5 -13t46.5 -35.5t27.5 -53t5.5 -66.5h205v-193h-397z" />
    <glyph glyph-name="maitriupperleftthai.alt9" 
d="M-631 3002v86l-110 -53l-115 53v-86h-201q0 49 13 94.5t38.5 82.5t63 61t86.5 29l115 -58l110 58q29 4 56.5 -4.5t50.5 -26.5t40 -43t25 -53h111v-140h-283z" />
    <glyph glyph-name="maichattawaupperleftthai.alt9" 
d="M-600 3121v-119h-221v119h-127v184h127v119h221v-119h127v-184h-127z" />
    <glyph glyph-name="saraileftthai" 
d="M-1081 2552v254h594v-254h-594z" />
    <glyph glyph-name="saraileftthai" unicode="&#xf701;" 
d="M-1081 2552v254h594v-254h-594z" />
    <glyph glyph-name="saraiileftthai" 
d="M-1081 2552v246h348v135h246v-381h-594z" />
    <glyph glyph-name="saraiileftthai" unicode="&#xf702;" 
d="M-1081 2552v246h348v135h246v-381h-594z" />
    <glyph glyph-name="saraueleftthai" 
d="M-442 2761q0 -48 -16.5 -81.5t-40.5 -54.5t-52 -30.5t-51 -9.5h-492v241h308q8 36 36.5 61t67 37t80.5 9.5t77.5 -22t59 -56.5t23.5 -94zM-569 2757q0 26 -16 39t-35.5 13t-35.5 -13t-16 -39t16 -39.5t35.5 -13.5t35.5 13.5t16 39.5z" />
    <glyph glyph-name="saraueleftthai" unicode="&#xf703;" 
d="M-442 2761q0 -48 -16.5 -81.5t-40.5 -54.5t-52 -30.5t-51 -9.5h-492v241h308q8 36 36.5 61t67 37t80.5 9.5t77.5 -22t59 -56.5t23.5 -94zM-569 2757q0 26 -16 39t-35.5 13t-35.5 -13t-16 -39t16 -39.5t35.5 -13.5t35.5 13.5t16 39.5z" />
    <glyph glyph-name="saraueeleftthai" 
d="M-1081 2552v246h221v135h143v-135h70v135h160v-381h-594z" />
    <glyph glyph-name="saraueeleftthai" unicode="&#xf704;" 
d="M-1081 2552v246h221v135h143v-135h70v135h160v-381h-594z" />
    <glyph glyph-name="maieklowleftthai" 
d="M-807 2552v340h287v-340h-287z" />
    <glyph glyph-name="maieklowleftthai" unicode="&#xf705;" 
d="M-807 2552v340h287v-340h-287z" />
    <glyph glyph-name="maitholowleftthai" 
d="M-926 2552v168h-155v233h102h102q36 0 60.5 -8.5t41.5 -22t27.5 -30t18.5 -33.5q9 -22 12.5 -45.5t3.5 -48.5h226v-213h-439z" />
    <glyph glyph-name="maitholowleftthai" unicode="&#xf706;" 
d="M-926 2552v168h-155v233h102h102q36 0 60.5 -8.5t41.5 -22t27.5 -30t18.5 -33.5q9 -22 12.5 -45.5t3.5 -48.5h226v-213h-439z" />
    <glyph glyph-name="maitrilowleftthai" 
d="M-741 2576v86l-111 -57l-115 57v-86h-200q-2 45 6 80.5t21.5 63t32 48t38.5 34.5q22 15 48 26.5t54 14.5l115 -58l111 58q15 3 32.5 0t32.5 -13q28 -12 56.5 -38.5t50.5 -75.5h110v-140h-282z" />
    <glyph glyph-name="maitrilowleftthai" unicode="&#xf707;" 
d="M-741 2576v86l-111 -57l-115 57v-86h-200q-2 45 6 80.5t21.5 63t32 48t38.5 34.5q22 15 48 26.5t54 14.5l115 -58l111 58q15 3 32.5 0t32.5 -13q28 -12 56.5 -38.5t50.5 -75.5h110v-140h-282z" />
    <glyph glyph-name="maichattawalowleftthai" 
d="M-627 2601v-119h-221v119h-127v188h127v119h221v-119h127v-188h-127z" />
    <glyph glyph-name="maichattawalowleftthai" unicode="&#xf708;" 
d="M-627 2601v-119h-221v119h-127v188h127v119h221v-119h127v-188h-127z" />
    <glyph glyph-name="thanthakhatlowleftthai" 
d="M-672 2695q-24 -5 -46.5 -16.5t-39 -30t-26 -43t-7.5 -53.5q0 -2 -14 -2t-36.5 0.5t-51 1t-57.5 0.5h-156v135q0 42 9.5 85t39.5 78t86 57t148 22h258v-234h-107z" />
    <glyph glyph-name="thanthakhatlowleftthai" unicode="&#xf709;" 
d="M-672 2695q-24 -5 -46.5 -16.5t-39 -30t-26 -43t-7.5 -53.5q0 -2 -14 -2t-36.5 0.5t-51 1t-57.5 0.5h-156v135q0 42 9.5 85t39.5 78t86 57t148 22h258v-234h-107z" />
    <glyph glyph-name="maieklowrightthai" 
d="M-393 2552v340h291v-340h-291z" />
    <glyph glyph-name="maieklowrightthai" unicode="&#xf70a;" 
d="M-393 2552v340h291v-340h-291z" />
    <glyph glyph-name="maitholowrightthai" 
d="M-459 2552v168h-151v233h102h102q36 0 62 -8.5t44 -22t29 -30t17 -33.5q18 -44 12 -94h230v-213h-447z" />
    <glyph glyph-name="maitholowrightthai" unicode="&#xf70b;" 
d="M-459 2552v168h-151v233h102h102q36 0 62 -8.5t44 -22t29 -30t17 -33.5q18 -44 12 -94h230v-213h-447z" />
    <glyph glyph-name="maitrilowrightthai" 
d="M-455 2552v106l-139 -69l-143 69v-106q0 -1 -18.5 -1.5t-46.5 -1t-60 -0.5t-60 0.5t-46.5 1t-18.5 1.5q-5 57 4 101t26 77.5t40.5 58t48.5 41.5q28 22 61 34.5t70 19.5l143 -70l139 70q42 0 82 -17q34 -15 70.5 -47t60.5 -96h140v-172h-353z" />
    <glyph glyph-name="maitrilowrightthai" unicode="&#xf70c;" 
d="M-455 2552v106l-139 -69l-143 69v-106q0 -1 -18.5 -1.5t-46.5 -1t-60 -0.5t-60 0.5t-46.5 1t-18.5 1.5q-5 57 4 101t26 77.5t40.5 58t48.5 41.5q28 22 61 34.5t70 19.5l143 -70l139 70q42 0 82 -17q34 -15 70.5 -47t60.5 -96h140v-172h-353z" />
    <glyph glyph-name="maichattawalowrightthai" 
d="M-147 2662v-110h-238v110h-123v205h123v107h238v-107h114v-205h-114z" />
    <glyph glyph-name="maichattawalowrightthai" unicode="&#xf70d;" 
d="M-147 2662v-110h-238v110h-123v205h123v107h238v-107h114v-205h-114z" />
    <glyph glyph-name="thanthakhatlowrightthai" 
d="M20 2695q-52 -9 -86.5 -46.5t-31.5 -96.5q0 -2 -14 -2t-36.5 0.5t-51.5 1t-58 0.5h-160v135q0 42 10.5 85t41.5 78t88 57t151 22h254v-234h-107z" />
    <glyph glyph-name="thanthakhatlowrightthai" unicode="&#xf70e;" 
d="M20 2695q-52 -9 -86.5 -46.5t-31.5 -96.5q0 -2 -14 -2t-36.5 0.5t-51.5 1t-58 0.5h-160v135q0 42 10.5 85t41.5 78t88 57t151 22h254v-234h-107z" />
    <glyph glyph-name="maihanakatleftthai" 
d="M-791 2552q-92 0 -148.5 22.5t-88 57.5t-42.5 77t-11 80v140h319q-2 -29 7 -55.5t25 -46t38.5 -31t48.5 -11.5h192v-233h-340z" />
    <glyph glyph-name="maihanakatleftthai" unicode="&#xf710;" 
d="M-791 2552q-92 0 -148.5 22.5t-88 57.5t-42.5 77t-11 80v140h319q-2 -29 7 -55.5t25 -46t38.5 -31t48.5 -11.5h192v-233h-340z" />
    <glyph glyph-name="nikhahitleftthai" 
d="M-504 2728q0 -77 -34 -128t-85 -76.5t-110.5 -25.5t-110.5 25.5t-85 76.5t-34 128t34 128t85 76.5t110.5 25.5t110.5 -25.5t85 -76.5t34 -128zM-643 2728q0 30 -13.5 49.5t-33.5 29.5t-43 10t-43 -10t-33.5 -29.5t-13.5 -49.5q0 -29 13.5 -48t33.5 -28.5t43 -9.5t43 9.5
t33.5 28.5t13.5 48z" />
    <glyph glyph-name="nikhahitleftthai" unicode="&#xf711;" 
d="M-504 2728q0 -77 -34 -128t-85 -76.5t-110.5 -25.5t-110.5 25.5t-85 76.5t-34 128t34 128t85 76.5t110.5 25.5t110.5 -25.5t85 -76.5t34 -128zM-643 2728q0 30 -13.5 49.5t-33.5 29.5t-43 10t-43 -10t-33.5 -29.5t-13.5 -49.5q0 -29 13.5 -48t33.5 -28.5t43 -9.5t43 9.5
t33.5 28.5t13.5 48z" />
    <glyph glyph-name="maitaikhuleftthai" 
d="M-778 2777q-51 4 -75.5 -6t-34.5 -26.5t-9.5 -35t0.5 -30.5v-90l180 118l176 -118v-172l-176 123l-180 -115h-172v356q0 35 13.5 64t36 49.5t52.5 31.5t62 11h368v-160h-241z" />
    <glyph glyph-name="maitaikhuleftthai" unicode="&#xf712;" 
d="M-778 2777q-51 4 -75.5 -6t-34.5 -26.5t-9.5 -35t0.5 -30.5v-90l180 118l176 -118v-172l-176 123l-180 -115h-172v356q0 35 13.5 64t36 49.5t52.5 31.5t62 11h368v-160h-241z" />
    <glyph glyph-name="maiekupperleftthai" 
d="M-735 3002v332h254v-332h-254z" />
    <glyph glyph-name="maiekupperleftthai" unicode="&#xf713;" 
d="M-735 3002v332h254v-332h-254z" />
    <glyph glyph-name="maithoupperleftthai" 
d="M-733 3002v152h-139v209h188q58 0 88.5 -26t42.5 -60q18 -38 12 -82h205v-193h-397z" />
    <glyph glyph-name="maithoupperleftthai" unicode="&#xf714;" 
d="M-733 3002v152h-139v209h188q58 0 88.5 -26t42.5 -60q18 -38 12 -82h205v-193h-397z" />
    <glyph glyph-name="maitriupperleftthai" 
d="M-721 3002v86l-110 -53l-115 53v-86h-201q-2 45 6 80.5t21.5 63t32 48t38.5 34.5q22 15 48.5 26.5t54.5 14.5l115 -58l110 58q34 7 66 -13q28 -12 56 -38.5t50 -75.5h111v-140h-283z" />
    <glyph glyph-name="maitriupperleftthai" unicode="&#xf715;" 
d="M-721 3002v86l-110 -53l-115 53v-86h-201q-2 45 6 80.5t21.5 63t32 48t38.5 34.5q22 15 48.5 26.5t54.5 14.5l115 -58l110 58q34 7 66 -13q28 -12 56 -38.5t50 -75.5h111v-140h-283z" />
    <glyph glyph-name="maichattawaupperleftthai" 
d="M-500 3121v-119h-221v119h-127v184h127v119h221v-119h127v-184h-127z" />
    <glyph glyph-name="maichattawaupperleftthai" unicode="&#xf716;" 
d="M-500 3121v-119h-221v119h-127v184h127v119h221v-119h127v-184h-127z" />
    <glyph glyph-name="thanthakhatupperleftthai" 
d="M-377 3117q-23 0 -41 -9.5t-31 -25t-19.5 -36.5t-6.5 -44h-258v111q0 32 8.5 66t33 62t70.5 46t121 18h209v-188h-86z" />
    <glyph glyph-name="thanthakhatupperleftthai" unicode="&#xf717;" 
d="M-377 3117q-23 0 -41 -9.5t-31 -25t-19.5 -36.5t-6.5 -44h-258v111q0 32 8.5 66t33 62t70.5 46t121 18h209v-188h-86z" />
    <glyph glyph-name="maitrithai.alt2" 
d="M-123 3002v111l-139 -70l-143 70v-111h-250q-5 57 4 102t26 79.5t40.5 59.5t48.5 42q28 22 61 34.5t70 18.5l143 -69l139 69q22 0 41.5 -3.5t40.5 -12.5q17 -8 35 -19t35.5 -28t33 -40.5t27.5 -56.5h140v-176h-353z" />
    </font>
</defs>
</svg>
