<svg xmlns="http://www.w3.org/2000/svg">
<defs>
<font id="DBSathornX" horiz-adv-x="0" >
  <font-face 
    font-family="DB Sathorn X"
    font-weight="400"
    font-stretch="normal"
    units-per-em="4096"
    panose-1="2 0 5 6 6 0 0 2 0 4"
    ascent="3276"
    descent="-820"
    x-height="1700"
    cap-height="2359"
    bbox="-1712 -1290 4039 3256"
    underline-thickness="143"
    underline-position="-390"
    unicode-range="U+0020-F882"
  />
<missing-glyph horiz-adv-x="1696" 
d="M1729 1638v-57h24q29 0 29 37q0 3 -6.5 11.5t-22.5 8.5h-24zM1741 1577h-12v-57h-21v139h45q49 0 49 -41q0 -28 -12.5 -34.5t-28.5 -6.5l41 -57h-20zM1753 1499q26 0 43.5 8t28 20.5t14.5 27t4 26.5q0 46 -21.5 72t-68.5 26q-46 0 -70 -26t-24 -72q0 -34 22.5 -58
t71.5 -24zM1753 1692q53 0 77.5 -32.5t24.5 -78.5q0 -17 -6 -33.5t-18.5 -30t-32 -22t-45.5 -8.5q-24 0 -44 8.5t-33.5 22t-21 30t-7.5 33.5q0 46 28.5 78.5t77.5 32.5zM823 1294q43 -3 98 -9t114 -15t118.5 -20.5t112 -25.5t94 -30t65.5 -35q-41 81 -107 144.5t-146.5 107
t-171 66t-181.5 22.5q-69 0 -136 -13t-128.5 -40t-115 -68t-95.5 -96q74 9 147.5 12.5t147.5 3.5q46 0 92 -0.5t92 -3.5zM1536 1618v-582q-98 31 -211.5 58t-238.5 47t-259 31.5t-274 11.5q-99 0 -194 -6t-191 -19q24 92 78 175.5t135.5 146.5t189.5 100t240 37
q127 0 229.5 -28.5t179 -70.5t128 -89.5t77.5 -86.5q0 -3 -0.5 11t-0.5 38t-1 55t-1 62.5t-0.5 60t-0.5 48.5h115zM627 520q0 34 -22.5 50t-47.5 16q-28 0 -49 -16t-21 -50t21 -47.5t49 -13.5q12 0 24.5 3t22.5 10.5t16.5 19t6.5 28.5zM131 569q0 95 37.5 168t98.5 122
t139 74t159 25t157.5 -22t135 -67.5t94 -115.5t35.5 -167v-475h434v827h115v-934h-774v107h119v487q0 61 -24 107.5t-66 77t-99 46t-123 15.5q-61 0 -118.5 -17.5t-102 -50.5t-71.5 -81t-27 -109v-439l237 238q-11 4 -25.5 14.5t-28 27t-23 39.5t-9.5 54q0 74 45 117t119 43
q35 0 64 -13t49.5 -35t31.5 -51t11 -61q0 -29 -6.5 -51t-16.5 -38t-20.5 -27t-18.5 -19q-5 -5 -23.5 -22.5t-46.5 -44.5t-62.5 -60.5t-71.5 -69.5q-44 -40 -92 -85.5t-101 -98.5h-131v565z" />
    <glyph glyph-name="ellipsis" unicode="&#x2e;&#x2e;&#x2e;" horiz-adv-x="2085" 
d="M1585 0v279h291v-279h-291zM897 0v279h291v-279h-291zM209 0v279h291v-279h-291z" />
    <glyph glyph-name="dochadaphinthuthai" unicode="&#xe0e;&#xe3a;" horiz-adv-x="1815" 
d="M1585 -152q0 -71 -23 -141t-72 -126t-124.5 -91t-181.5 -35h-365l-172 172l-172 -172h-369v172h312l229 230l230 -230h213q44 0 87.5 8.5t77.5 40t55 93.5t21 170v1286q0 75 -23 138.5t-70 110t-119.5 73t-172.5 26.5q-94 0 -173.5 -28t-137.5 -76t-90.5 -112t-32.5 -136
v-1221h-442v164h180v827q0 66 4.5 117.5t18 96t39.5 85.5t69 86q-9 3 -20.5 8.5t-20.5 8.5q-22 9 -46 12.5t-52 3.5v111q43 35 124 73.5t182.5 70.5t213.5 52.5t217 20.5q121 0 231 -25t193.5 -79.5t132.5 -141t49 -209.5v-1434zM1602 -913q0 -72 -42.5 -114t-113.5 -42
t-113.5 42t-42.5 114q0 71 42.5 113t113.5 42t113.5 -42t42.5 -113z" />
    <glyph glyph-name="topatakphintuthai" unicode="&#xe0f;&#xe3a;" horiz-adv-x="1815" 
d="M1585 -152q0 -71 -24 -141t-74 -126t-126.5 -91t-180.5 -35h-107l-172 172l-172 -172h-115l-172 172l-172 -172h-164v172h107l229 230l230 -230l229 230l229 -230q48 0 85 13t63 44t39.5 83.5t13.5 130.5v1327q0 75 -23 138.5t-70 110t-119.5 73t-172.5 26.5
q-94 0 -173.5 -28t-137.5 -76t-90.5 -112t-32.5 -136v-1221h-442v164h180v827q0 66 4.5 117.5t18 96t39.5 85.5t69 86q-9 3 -20.5 8.5t-20.5 8.5q-22 9 -46 12.5t-52 3.5v111q43 35 124 73.5t182.5 70.5t213.5 52.5t217 20.5q121 0 231 -25t193.5 -79.5t132.5 -141
t49 -209.5v-1434zM1602 -913q0 -72 -42.5 -114t-113.5 -42t-113.5 42t-42.5 114q0 71 42.5 113t113.5 42t113.5 -42t42.5 -113z" />
    <glyph glyph-name="dochadasarauthai" unicode="&#xe0e;&#xe38;" horiz-adv-x="1815" 
d="M1585 -152q0 -71 -23 -141t-72 -126t-124.5 -91t-181.5 -35h-365l-172 172l-172 -172h-369v172h312l229 230l230 -230h213q44 0 87.5 8.5t77.5 40t55 93.5t21 170v1286q0 75 -23 138.5t-70 110t-119.5 73t-172.5 26.5q-94 0 -173.5 -28t-137.5 -76t-90.5 -112t-32.5 -136
v-1221h-442v164h180v827q0 66 4.5 117.5t18 96t39.5 85.5t69 86q-9 3 -20.5 8.5t-20.5 8.5q-22 9 -46 12.5t-52 3.5v111q43 35 124 73.5t182.5 70.5t213.5 52.5t217 20.5q121 0 231 -25t193.5 -79.5t132.5 -141t49 -209.5v-1434zM1360 -1253v245q0 86 -82 86h-111l54 168
h217q71 0 109 -47t38 -125v-327h-225z" />
    <glyph glyph-name="topataksarauthai" unicode="&#xe0f;&#xe38;" horiz-adv-x="1815" 
d="M1585 -152q0 -71 -24 -141t-74 -126t-126.5 -91t-180.5 -35h-107l-172 172l-172 -172h-115l-172 172l-172 -172h-164v172h107l229 230l230 -230l229 230l229 -230q48 0 85 13t63 44t39.5 83.5t13.5 130.5v1327q0 75 -23 138.5t-70 110t-119.5 73t-172.5 26.5
q-94 0 -173.5 -28t-137.5 -76t-90.5 -112t-32.5 -136v-1221h-442v164h180v827q0 66 4.5 117.5t18 96t39.5 85.5t69 86q-9 3 -20.5 8.5t-20.5 8.5q-22 9 -46 12.5t-52 3.5v111q43 35 124 73.5t182.5 70.5t213.5 52.5t217 20.5q121 0 231 -25t193.5 -79.5t132.5 -141
t49 -209.5v-1434zM1360 -1253v245q0 86 -82 86h-111l54 168h217q71 0 109 -47t38 -125v-327h-225z" />
    <glyph glyph-name="fongmanfunnuthai" unicode="&#xe4f;&#x22;" horiz-adv-x="2048" 
d="M1294 1815h-139l-45 671h242zM881 1815h-140l-45 671h242zM1847 852q0 -114 -29.5 -219t-83 -196.5t-128.5 -166.5t-166.5 -128.5t-196.5 -83t-219 -29.5q-112 0 -216 29.5t-195 83t-166 128.5t-129 166.5t-83.5 196.5t-29.5 219q0 111 29.5 215.5t83.5 195.5t129 166
t166 129t195 83.5t216 29.5q114 0 219 -29.5t196.5 -83.5t166.5 -129t128.5 -166t83 -195.5t29.5 -215.5zM1692 852q0 92 -24 177.5t-67.5 159.5t-104.5 135t-135 104.5t-159.5 67.5t-177.5 24q-93 0 -178.5 -24t-159.5 -67.5t-134 -104.5t-102.5 -135t-66 -159.5
t-23.5 -177.5t23.5 -177.5t66 -159.5t102.5 -135t134 -104.5t159.5 -67.5t178.5 -24q92 0 177.5 24t159.5 67.5t135 104.5t104.5 135t67.5 159.5t24 177.5zM1491 852q0 -97 -36.5 -182t-100 -148.5t-148.5 -100t-182 -36.5t-182 36.5t-148.5 100t-100 148.5t-36.5 182
t36.5 182t100 148.5t148.5 100t182 36.5t182 -36.5t148.5 -100t100 -148.5t36.5 -182zM1364 852q0 72 -26 134t-71.5 108t-108 72t-134.5 26t-134.5 -26t-108 -72t-71.5 -108t-26 -134t26 -134.5t71.5 -108t108 -71.5t134.5 -26t134.5 26t108 71.5t71.5 108t26 134.5z" />
    <glyph glyph-name="lessequal" unicode="&#x3c;&#x3d;" horiz-adv-x="2122" 
d="M274 741v263l1614 -631v-242zM274 1233v278l1614 611v-246l-1339 -496l1339 -516v-241z" />
    <glyph glyph-name="greaterequal" unicode="&#x3e;&#x3d;" horiz-adv-x="2122" 
d="M262 131v242l1614 626v-258zM262 623v241l1340 516l-1340 496v246l1614 -611v-278z" />
    <glyph glyph-name="plusminus" unicode="&#x2b;&#x2d;" horiz-adv-x="2363" 
d="M1286 1257v-708h-205v708h-749v205h749v709h205v-709h750v-205h-750zM328 0v221h1712v-221h-1712z" />
    <glyph glyph-name="dochadasarauuthai" unicode="&#xe0e;&#xe39;" horiz-adv-x="1815" 
d="M1585 -152q0 -71 -23 -141t-72 -126t-124.5 -91t-181.5 -35h-365l-172 172l-172 -172h-369v172h312l229 230l230 -230h213q44 0 87.5 8.5t77.5 40t55 93.5t21 170v1286q0 75 -23 138.5t-70 110t-119.5 73t-172.5 26.5q-94 0 -173.5 -28t-137.5 -76t-90.5 -112t-32.5 -136
v-1221h-442v164h180v827q0 66 4.5 117.5t18 96t39.5 85.5t69 86q-9 3 -20.5 8.5t-20.5 8.5q-22 9 -46 12.5t-52 3.5v111q43 35 124 73.5t182.5 70.5t213.5 52.5t217 20.5q121 0 231 -25t193.5 -79.5t132.5 -141t49 -209.5v-1434zM1581 -1016q0 -81 -24 -134t-73.5 -84
t-125 -43.5t-178.5 -12.5q-97 0 -165 18t-110.5 46.5t-62 64.5t-19.5 71v86q0 95 -82 95h-106l70 159h196q35 0 60 -12.5t40.5 -35t23 -54t7.5 -70.5v-114q0 -47 38.5 -77t113.5 -30q151 0 151 131v262h246v-266z" />
    <glyph glyph-name="topataksarauuthai" unicode="&#xe0f;&#xe39;" horiz-adv-x="1815" 
d="M1585 -152q0 -71 -24 -141t-74 -126t-126.5 -91t-180.5 -35h-107l-172 172l-172 -172h-115l-172 172l-172 -172h-164v172h107l229 230l230 -230l229 230l229 -230q48 0 85 13t63 44t39.5 83.5t13.5 130.5v1327q0 75 -23 138.5t-70 110t-119.5 73t-172.5 26.5
q-94 0 -173.5 -28t-137.5 -76t-90.5 -112t-32.5 -136v-1221h-442v164h180v827q0 66 4.5 117.5t18 96t39.5 85.5t69 86q-9 3 -20.5 8.5t-20.5 8.5q-22 9 -46 12.5t-52 3.5v111q43 35 124 73.5t182.5 70.5t213.5 52.5t217 20.5q121 0 231 -25t193.5 -79.5t132.5 -141
t49 -209.5v-1434zM1581 -1016q0 -81 -24 -134t-73.5 -84t-125 -43.5t-178.5 -12.5q-97 0 -165 18t-110.5 46.5t-62 64.5t-19.5 71v86q0 95 -82 95h-106l70 159h196q35 0 60 -12.5t40.5 -35t23 -54t7.5 -70.5v-114q0 -47 38.5 -77t113.5 -30q151 0 151 131v262h246v-266z" />
    <glyph glyph-name=".notdef" horiz-adv-x="1696" 
d="M1729 1638v-57h24q29 0 29 37q0 3 -6.5 11.5t-22.5 8.5h-24zM1741 1577h-12v-57h-21v139h45q49 0 49 -41q0 -28 -12.5 -34.5t-28.5 -6.5l41 -57h-20zM1753 1499q26 0 43.5 8t28 20.5t14.5 27t4 26.5q0 46 -21.5 72t-68.5 26q-46 0 -70 -26t-24 -72q0 -34 22.5 -58
t71.5 -24zM1753 1692q53 0 77.5 -32.5t24.5 -78.5q0 -17 -6 -33.5t-18.5 -30t-32 -22t-45.5 -8.5q-24 0 -44 8.5t-33.5 22t-21 30t-7.5 33.5q0 46 28.5 78.5t77.5 32.5zM823 1294q43 -3 98 -9t114 -15t118.5 -20.5t112 -25.5t94 -30t65.5 -35q-41 81 -107 144.5t-146.5 107
t-171 66t-181.5 22.5q-69 0 -136 -13t-128.5 -40t-115 -68t-95.5 -96q74 9 147.5 12.5t147.5 3.5q46 0 92 -0.5t92 -3.5zM1536 1618v-582q-98 31 -211.5 58t-238.5 47t-259 31.5t-274 11.5q-99 0 -194 -6t-191 -19q24 92 78 175.5t135.5 146.5t189.5 100t240 37
q127 0 229.5 -28.5t179 -70.5t128 -89.5t77.5 -86.5q0 -3 -0.5 11t-0.5 38t-1 55t-1 62.5t-0.5 60t-0.5 48.5h115zM627 520q0 34 -22.5 50t-47.5 16q-28 0 -49 -16t-21 -50t21 -47.5t49 -13.5q12 0 24.5 3t22.5 10.5t16.5 19t6.5 28.5zM131 569q0 95 37.5 168t98.5 122
t139 74t159 25t157.5 -22t135 -67.5t94 -115.5t35.5 -167v-475h434v827h115v-934h-774v107h119v487q0 61 -24 107.5t-66 77t-99 46t-123 15.5q-61 0 -118.5 -17.5t-102 -50.5t-71.5 -81t-27 -109v-439l237 238q-11 4 -25.5 14.5t-28 27t-23 39.5t-9.5 54q0 74 45 117t119 43
q35 0 64 -13t49.5 -35t31.5 -51t11 -61q0 -29 -6.5 -51t-16.5 -38t-20.5 -27t-18.5 -19q-5 -5 -23.5 -22.5t-46.5 -44.5t-62.5 -60.5t-71.5 -69.5q-44 -40 -92 -85.5t-101 -98.5h-131v565z" />
    <glyph glyph-name=".null" 
 />
    <glyph glyph-name="nonmarkingreturn" horiz-adv-x="1159" 
 />
    <glyph glyph-name="space" unicode=" " horiz-adv-x="1024" 
 />
    <glyph glyph-name="exclam" unicode="!" horiz-adv-x="983" 
d="M561 545h-135l-115 1618h373zM332 0v336h327v-336h-327z" />
    <glyph glyph-name="quotedbl" unicode="&#x22;" horiz-adv-x="1335" 
d="M868 1499h-172l185 868h290zM393 1499h-168l181 868h290z" />
    <glyph glyph-name="numbersign" unicode="#" horiz-adv-x="2048" 
d="M1827 1352h-320l-94 -500h320l-41 -201h-320l-123 -651h-200l118 651h-458l-123 -651h-205l127 651h-328l37 201h328l94 500h-328l37 200h328l119 611h204l-118 -611h458l115 611h209l-115 -611h320zM844 1352l-94 -500h458l95 500h-459z" />
    <glyph glyph-name="dollar" unicode="$" horiz-adv-x="2216" 
d="M2015 672q0 -134 -49 -256t-145 -218t-239.5 -157.5t-332.5 -73.5v-274h-233v274q-158 12 -290.5 55t-238 123t-182.5 200t-125 286l258 57q59 -223 207 -356.5t371 -167.5v934q-54 13 -128 31t-153.5 47.5t-156.5 74t-138.5 111.5t-99 160t-37.5 219q0 158 58 276
t156 198t227 122.5t272 50.5v213h233v-217q123 -17 232 -58t198.5 -110t156.5 -168.5t106 -232.5l-263 -70q-17 80 -54 151.5t-91.5 129.5t-126.5 99.5t-158 61.5v-848q94 -16 187.5 -41.5t178.5 -63t158 -89t127 -120.5t84.5 -156.5t30.5 -196.5zM1016 2204
q-105 -8 -186.5 -41t-137.5 -87.5t-85 -129t-29 -164.5q0 -100 37.5 -164.5t99 -106.5t140 -67.5t161.5 -46.5v807zM1720 631q0 87 -35 153t-97.5 114.5t-149 83t-189.5 58.5v-880q123 14 212 56.5t146.5 105.5t85 142t27.5 167z" />
    <glyph glyph-name="percent" unicode="%" horiz-adv-x="2802" 
d="M2626 582q0 -74 -13 -148.5t-39.5 -143t-66.5 -128.5t-95.5 -104t-125.5 -69.5t-156 -25.5q-85 0 -154.5 25.5t-124 69.5t-95 104t-66.5 128.5t-39 143t-13 148.5q0 117 28 228.5t87 199t151.5 141t221.5 53.5q130 0 224.5 -53.5t156 -141t90.5 -199t29 -228.5zM819 0
h-278l1458 2363h266zM1196 1794q0 -111 -29 -221t-90 -198.5t-154.5 -143.5t-222.5 -55q-85 0 -154.5 25.5t-124 69.5t-94.5 103.5t-66 128t-39 143t-13 148.5q0 117 27.5 228.5t87 199.5t151.5 141.5t221 53.5q130 0 224.5 -53.5t156 -141.5t90.5 -199.5t29 -228.5z
M2396 582q0 48 -4.5 101.5t-16 106t-31.5 100t-50 84t-71.5 58t-96.5 21.5t-95.5 -21.5t-69.5 -58t-47 -84t-28 -100t-14 -106t-4 -101.5q0 -41 3.5 -92t13.5 -103t28 -102t47 -88.5t71 -62t99 -23.5t99 23.5t71.5 62t48 88.5t29 102t14.5 103t4 92zM967 1794q0 48 -4.5 102
t-16.5 106t-31.5 100t-49.5 84t-72 57.5t-97 21.5t-95.5 -21.5t-69.5 -57.5t-47 -84t-28 -100t-14 -106t-4 -102q0 -41 3.5 -92t13.5 -103t28 -102t47 -88.5t71 -62t99 -23.5t99.5 23.5t72 62t48 88.5t29 102t14.5 103t4 92z" />
    <glyph glyph-name="ampersand" unicode="&#x26;" horiz-adv-x="2761" 
d="M2425 8q-22 -3 -45.5 -6t-44.5 -6q-41 -3 -83.5 -5.5t-88.5 -2.5q-39 0 -83 9t-90.5 31.5t-95 61t-96.5 98.5q-127 -102 -280 -159.5t-338 -57.5q-177 0 -309 39t-224.5 107t-148.5 160t-80 198q-25 109 -2 222.5t88 222.5t171 208t247 179l-213 282q-59 78 -84.5 155
t-22.5 161q0 93 37.5 179t106.5 152t166.5 105t217.5 39q118 0 221 -30.5t178.5 -92t119 -154.5t43.5 -219q0 -104 -29.5 -189t-87.5 -157.5t-142.5 -136.5t-195.5 -127l594 -762q43 49 78.5 106t64 118.5t51 127t39.5 131.5l238 -57q-29 -84 -66 -167.5t-80 -160.5
t-91.5 -144.5t-102.5 -121.5q23 -29 47.5 -54.5t48.5 -44.5t45.5 -31t38.5 -13q29 -5 58 -8.5t63 -2.5t75 7t95 20zM1470 1884q0 34 -5 71t-19 73t-38 68.5t-61 57.5t-89.5 39.5t-122.5 14.5q-66 0 -117 -21.5t-87 -56.5t-56.5 -81t-26.5 -95q-9 -65 4 -121t53 -109
l221 -299q86 54 150.5 105t107.5 105t64.5 114.5t21.5 134.5zM1032 1163q-121 -75 -198.5 -154.5t-117.5 -164.5t-45.5 -176t17.5 -189q17 -66 64.5 -127.5t115 -108.5t148.5 -75.5t164 -28.5q78 0 147.5 15t131 42t116.5 64t104 80z" />
    <glyph glyph-name="quotesingle" unicode="'" horiz-adv-x="815" 
d="M369 1495h-168l180 872h270z" />
    <glyph glyph-name="parenleft" unicode="(" horiz-adv-x="1229" 
d="M877 -336q-132 120 -248 270.5t-202 330.5t-135.5 389.5t-49.5 447.5q0 143 23.5 283t65.5 272.5t100.5 256t128.5 234.5t149 207.5t163 175.5h164q-75 -91 -142.5 -198.5t-125 -226t-104.5 -244t-79.5 -252.5t-50.5 -252.5t-18 -243.5q0 -122 17 -252t49 -261.5t78 -261
t104 -250t127.5 -228.5t148.5 -197h-163z" />
    <glyph glyph-name="parenright" unicode=")" horiz-adv-x="1229" 
d="M995 1102q0 -238 -49.5 -447.5t-135.5 -389.5t-202 -330.5t-248 -270.5h-163q77 91 145.5 199.5t127 228.5t105 248t79 258.5t50 261t17.5 254.5q0 118 -18 243.5t-50.5 252.5t-79.5 252.5t-104.5 244t-125 226t-142.5 198.5h164q84 -79 163 -175.5t149 -207.5
t128.5 -234.5t100.5 -256t65.5 -272.5t23.5 -283z" />
    <glyph glyph-name="asterisk" unicode="*" horiz-adv-x="1573" 
d="M922 1757l319 -352l-197 -143l-241 409l-242 -418l-196 144l323 360l-479 98l78 234l446 -197l-53 475h246l-49 -475l434 197l78 -234z" />
    <glyph glyph-name="plus" unicode="+" horiz-adv-x="2363" 
d="M1286 848v-709h-205v709h-749v205h749v708h205v-708h750v-205h-750z" />
    <glyph glyph-name="comma" unicode="," horiz-adv-x="926" 
d="M360 -516h-127l218 516h-160v356h360v-340z" />
    <glyph glyph-name="hyphen" unicode="-" horiz-adv-x="1581" 
d="M57 840v221h1467v-221h-1467z" />
    <glyph glyph-name="period" unicode="." horiz-adv-x="926" 
d="M295 0v356h352v-356h-352z" />
    <glyph glyph-name="slash" unicode="/" horiz-adv-x="1319" 
d="M496 -86h-234l561 2449h234z" />
    <glyph glyph-name="zero" unicode="0" horiz-adv-x="1925" 
d="M1790 1085q0 -131 -20 -264.5t-62 -257t-107 -232t-155 -188.5t-206.5 -126t-260.5 -46q-149 0 -268 48t-210.5 130.5t-157.5 192.5t-108.5 234t-62.5 254.5t-20 254.5q0 123 18 253t58 252.5t102.5 232t151.5 191t206.5 129.5t265.5 48q156 0 278.5 -48t215.5 -129.5
t158 -191t106 -232t59.5 -252.5t18.5 -253zM1499 1085q0 81 -7.5 181.5t-28 203.5t-58 201.5t-97.5 174.5t-146 122.5t-204 46.5q-109 0 -189 -45.5t-137.5 -121t-94 -172.5t-58 -200.5t-29.5 -205t-8 -185.5q0 -89 8 -192.5t30 -207.5t60 -200t97.5 -170t143.5 -118.5
t198 -44.5q106 0 186 43t138 115.5t96 167t60 198.5t31 209.5t9 199.5z" />
    <glyph glyph-name="one" unicode="1" horiz-adv-x="1925" 
d="M496 0v201h430v1552q-63 -54 -121 -93t-118 -70t-125.5 -56t-143.5 -51v241q90 39 167.5 80.5t147.5 93t135 116t131 149.5h197v-1962h426v-201h-1126z" />
    <glyph glyph-name="two" unicode="2" horiz-adv-x="1925" 
d="M1724 1495q0 -134 -32 -243t-89 -202t-135 -173.5t-170 -155.5l-622 -516h1032v-205h-1413v168l795 663q78 63 141.5 132.5t108.5 150.5t69.5 175t24.5 206q0 105 -30.5 200t-88.5 167t-140.5 114.5t-187.5 42.5q-108 0 -191 -42.5t-143 -115t-98 -168.5t-55 -202
l-262 70q38 147 104.5 264.5t160.5 199.5t215.5 126t268.5 44q111 0 208.5 -26t179.5 -72.5t146.5 -111.5t109.5 -143t69 -166t24 -181z" />
    <glyph glyph-name="three" unicode="3" horiz-adv-x="1925" 
d="M1745 565q0 -70 -18.5 -140.5t-58.5 -136t-102 -122.5t-149 -99.5t-200 -67t-254 -24.5q-135 0 -258 31.5t-223.5 96t-174 161.5t-110.5 228l249 81q20 -100 68.5 -179.5t117.5 -135t155.5 -85.5t183.5 -30q123 0 215 33.5t153.5 92t92 138t30.5 171.5q0 107 -41 188
t-108 136t-153 84t-177 34h-287v209h299q196 9 295 115t99 290q0 86 -29 156.5t-81.5 120.5t-126.5 77t-165 27q-81 0 -156 -24.5t-137.5 -72.5t-108.5 -119t-69 -165l-258 70q37 127 107.5 220t166 153t211.5 89t244 29q143 0 266.5 -40.5t214.5 -115.5t143 -181t52 -236
q0 -98 -29 -182t-82 -148.5t-128 -106t-167 -55.5v-8q91 -8 178.5 -50t156.5 -114.5t111 -172t42 -220.5z" />
    <glyph glyph-name="four" unicode="4" horiz-adv-x="1925" 
d="M1446 504v-504h-262v504h-1065v180l991 1479h336v-1450h364v-209h-364zM1184 1937l-783 -1224h783v1224z" />
    <glyph glyph-name="five" unicode="5" horiz-adv-x="1925" 
d="M1749 729q0 -166 -59 -304.5t-164.5 -238.5t-250.5 -155.5t-317 -55.5q-123 0 -237.5 29t-213 90.5t-177 158.5t-129.5 234l245 95q29 -103 79 -184.5t116 -138t146.5 -86.5t170.5 -30q140 0 241.5 43.5t167 121.5t97 185.5t31.5 235.5q0 135 -37.5 241t-104.5 179
t-160.5 111t-205.5 38q-350 0 -491 -352l-242 53l82 1164h1278l-29 -193h-1032l-49 -733q31 61 82 107.5t116 77t140 46t153 15.5q172 0 311.5 -58t237.5 -159.5t151.5 -239t53.5 -297.5z" />
    <glyph glyph-name="six" unicode="6" horiz-adv-x="1925" 
d="M1769 713q0 -107 -27 -203t-76.5 -178t-119 -148t-154.5 -112.5t-183.5 -71.5t-204.5 -25q-151 0 -271.5 42t-214 116.5t-160.5 175t-110 218t-63.5 246.5t-20.5 259q0 144 20 286.5t63.5 271t112 238.5t164.5 191t221 126.5t283 45.5q272 0 448.5 -122t260.5 -357
l-234 -65q-55 188 -173.5 280t-301.5 92q-126 0 -221 -46t-163.5 -122.5t-113.5 -177.5t-71.5 -210.5t-37.5 -221t-11 -209.5q29 98 83 180t133.5 141.5t184 92.5t233.5 33q166 0 300 -57.5t228.5 -159.5t145.5 -242.5t51 -306.5zM1520 700q0 152 -41.5 264.5t-109 186.5
t-152.5 110.5t-173 36.5q-94 0 -172 -24t-140.5 -67t-109 -101t-77.5 -126.5t-46.5 -143.5t-15.5 -152q0 -62 14.5 -125.5t44 -124t73 -113.5t101 -92.5t130 -62.5t158.5 -23q120 0 215.5 46t162 123.5t102.5 178t36 209.5z" />
    <glyph glyph-name="seven" unicode="7" horiz-adv-x="1925" 
d="M1712 1999q-114 -127 -216.5 -276t-190 -313t-157 -340t-117 -355.5t-71 -360t-18.5 -354.5h-283q0 286 62.5 557t172 520.5t258.5 474t323 418.5h-1225l29 193h1433v-164z" />
    <glyph glyph-name="eight" unicode="8" horiz-adv-x="1925" 
d="M1798 590q0 -112 -34 -201t-93 -157t-139.5 -117t-174.5 -80t-196.5 -45.5t-206.5 -14.5q-100 0 -200.5 17t-192.5 50.5t-171 83.5t-137.5 116t-92 148t-33.5 179q0 112 45.5 201t120.5 157.5t172.5 117.5t202.5 81q-85 32 -163.5 81t-139 113.5t-96.5 144.5t-36 173
q0 98 31.5 177t86.5 140t128 105t156.5 72t172.5 41.5t175 13.5q155 0 288 -36.5t230 -104.5t152 -166t55 -221q0 -100 -25.5 -181t-78.5 -146.5t-134 -116t-192 -89.5q106 -32 200.5 -78t165.5 -110.5t112.5 -150t41.5 -197.5zM1466 1647q0 100 -38 172t-103.5 118.5
t-152.5 68.5t-185 22q-95 0 -182 -22.5t-153 -68t-105 -114t-39 -160.5q0 -66 19.5 -119t53.5 -96.5t78.5 -77.5t94.5 -61t102.5 -47.5t101.5 -36.5q49 19 106 41t113.5 48.5t108.5 58.5t92 72.5t64 90t24 111.5zM1532 549q0 73 -27 132t-72 106t-104 84t-124 65.5
t-131 49.5t-124 38q-58 -11 -122 -30.5t-126 -47.5t-118 -65.5t-98.5 -84.5t-67.5 -104.5t-25 -126.5q0 -76 25 -137t68 -108t100 -81.5t120 -56.5t129 -32.5t128 -10.5q57 0 121.5 11t128 33.5t121 56t102 79t70.5 103t26 127.5z" />
    <glyph glyph-name="nine" unicode="9" horiz-adv-x="1925" 
d="M1774 1143q0 -146 -20.5 -288t-64 -271t-111.5 -239t-164 -190t-221.5 -125.5t-283.5 -45.5q-270 0 -448 123t-260 356l233 65q29 -92 72 -161.5t102.5 -116.5t137 -70.5t176.5 -23.5q93 0 168.5 27t135.5 75t106 114t81 144q32 74 54 154t35.5 161t19.5 160.5t6 151.5
q-29 -98 -83.5 -180.5t-134 -141.5t-184 -92t-233.5 -33q-166 0 -300 57.5t-228.5 159.5t-145.5 242.5t-51 306.5q0 106 27 202.5t77 178.5t119.5 148t154.5 112.5t183 71.5t205 25q150 0 271 -42t214.5 -116.5t160.5 -175t110 -218t63.5 -246.5t20.5 -259zM1454 1491
q0 61 -14.5 125t-43.5 124.5t-73 113.5t-101.5 92.5t-129.5 62.5t-158 23q-120 0 -215.5 -46.5t-162.5 -123.5t-102.5 -177.5t-35.5 -209.5q0 -152 41 -264.5t109 -186.5t157 -110.5t184 -36.5q89 0 164 23.5t136 65.5t106.5 100t76.5 126t46.5 144t15.5 155z" />
    <glyph glyph-name="colon" unicode=":" horiz-adv-x="926" 
d="M287 1343v357h352v-357h-352zM287 0v356h352v-356h-352z" />
    <glyph glyph-name="semicolon" unicode=";" horiz-adv-x="926" 
d="M287 1348v352h352v-352h-352zM356 -516h-127l217 516h-159v360h360v-344z" />
    <glyph glyph-name="less" unicode="&#x3c;" horiz-adv-x="2122" 
d="M274 905v279l1614 610v-246l-1339 -495l1339 -516v-242z" />
    <glyph glyph-name="equal" unicode="=" horiz-adv-x="2331" 
d="M311 1180v221h1757v-221h-1757zM311 500v221h1757v-221h-1757z" />
    <glyph glyph-name="greater" unicode="&#x3e;" horiz-adv-x="2122" 
d="M262 295v242l1340 516l-1340 495v246l1614 -610v-279z" />
    <glyph glyph-name="question" unicode="?" horiz-adv-x="2216" 
d="M1835 1585q0 -104 -31.5 -191.5t-93 -162.5t-154 -139.5t-213.5 -124.5q-54 -26 -87.5 -55.5t-52 -64t-25.5 -75.5t-7 -92v-168h-225v160q0 67 12.5 134t45 127t88 111t141.5 86q72 29 131.5 77t102 108t66 129t23.5 141q0 97 -27.5 178t-82.5 140t-137 92t-191 33
q-114 0 -202.5 -41.5t-151 -113t-98.5 -166t-43 -200.5l-234 49q23 154 83.5 273t154.5 200.5t218.5 123.5t276.5 42q93 0 182 -17.5t168.5 -52.5t146 -86.5t114.5 -119t75 -151.5t27 -183zM922 0v274h270v-274h-270z" />
    <glyph glyph-name="at" unicode="@" horiz-adv-x="2662" 
d="M2564 1307q0 -126 -29 -242.5t-80 -218.5t-120 -185t-148 -143t-165 -92.5t-171 -32.5q-75 0 -127.5 20t-87 52t-53.5 73.5t-27 84.5q-29 -51 -66.5 -93.5t-85.5 -72.5t-109 -47t-136 -17q-123 0 -215.5 59t-145 166t-61 257t36.5 333q42 166 109 288.5t156.5 203.5
t198 120.5t232.5 39.5q204 0 295 -164l41 143h271l-295 -1032q-18 -66 -17.5 -112.5t15 -76.5t39 -43.5t53.5 -13.5q53 0 110.5 27t112.5 75.5t104.5 116.5t86.5 150.5t59 176.5t22 196q0 139 -32.5 259.5t-92.5 220.5t-145.5 177.5t-191 130.5t-229 81t-259.5 28
q-153 0 -288.5 -38t-250 -109t-206 -171t-155.5 -224t-98 -268.5t-34 -304.5q0 -204 57.5 -376t175.5 -297t297.5 -195t423.5 -70q184 0 328.5 27t254.5 68t188 90t131 94l122 -102q-399 -369 -1028 -369q-165 0 -317.5 32t-285.5 95.5t-242 157.5t-187 218t-121 277
t-43 334q0 169 36.5 333t109.5 311.5t181 272.5t251 216t320 142.5t388 51.5q169 0 319 -37.5t276.5 -107.5t227.5 -168t171 -219t107.5 -261.5t37.5 -295.5zM1692 1421q17 58 5 113t-43.5 97t-78 67.5t-100.5 25.5q-88 0 -159 -46.5t-125.5 -124.5t-94 -179.5t-64.5 -210.5
q-16 -68 -23.5 -139t-5.5 -138t15 -127t37 -105t60 -71t85 -26q63 0 116 20t94.5 57.5t71 90.5t46.5 119q6 22 18 65t27.5 96.5t33 113t33.5 116.5t30 105.5t22 80.5z" />
    <glyph glyph-name="A" unicode="A" horiz-adv-x="2126" 
d="M1769 0l-245 688h-955l-237 -688h-262l839 2359h336l819 -2359h-295zM1053 2044l-398 -1131h791z" />
    <glyph glyph-name="B" unicode="B" horiz-adv-x="2056" 
d="M1921 651q0 -161 -53.5 -283t-153 -204t-241 -123t-318.5 -41h-930v2359h959q117 0 211.5 -23t169 -63t128.5 -94.5t89 -118.5t52 -134t17 -140q0 -103 -28.5 -190t-82 -154.5t-131 -114.5t-175.5 -70v-8q111 -23 200.5 -76t153.5 -130.5t98.5 -177t34.5 -214.5z
M1556 1753q0 92 -32.5 160.5t-90.5 114t-137.5 68t-173.5 22.5h-602v-770h602q115 4 197.5 38t135 89t77 126.5t24.5 151.5zM1626 664q0 52 -11 106t-35 105t-62.5 96t-93.5 78.5t-128 53t-166 19.5h-610v-872h619q111 0 200.5 27.5t153.5 80.5t98.5 130t34.5 176z" />
    <glyph glyph-name="C" unicode="C" horiz-adv-x="2093" 
d="M2003 737q-25 -172 -98.5 -313.5t-191.5 -243t-279 -157.5t-361 -56q-173 0 -313.5 50t-250 137t-189.5 204.5t-132 253t-77 282t-25 290.5q0 160 27 312t82 286.5t138.5 247t197 194t257 127t318.5 45.5q196 0 355.5 -63.5t279.5 -173.5q108 -103 174 -231t88 -286
l-291 -53q-11 77 -37 151t-66 140.5t-92.5 122.5t-117.5 97t-141.5 64t-163.5 23q-135 0 -238.5 -46t-179.5 -124t-127 -180t-82 -214t-44 -226.5t-13 -216.5q0 -118 16 -238.5t50 -232.5t87 -210t127.5 -170.5t171.5 -114.5t219 -42q135 0 245.5 51t192.5 137.5t133 199
t68 235.5z" />
    <glyph glyph-name="D" unicode="D" horiz-adv-x="2097" 
d="M2032 1188q0 -155 -28.5 -303t-84.5 -280t-138 -243t-188.5 -191.5t-237 -125.5t-282.5 -45h-889v2359h828q160 0 297.5 -42t251 -118.5t201 -184t148 -237.5t91.5 -279t31 -310zM1716 1188q0 123 -19 238.5t-57.5 217.5t-96 187.5t-134.5 148t-173 100t-212 42.5h-545
v-1880h565q113 5 206.5 44t168 104t130.5 153t93 191.5t55.5 218.5t18.5 235z" />
    <glyph glyph-name="E" unicode="E" horiz-adv-x="1724" 
d="M188 0v2359h1495v-254h-1196v-749h938v-238h-938v-864h1213v-254h-1512z" />
    <glyph glyph-name="F" unicode="F" horiz-adv-x="1700" 
d="M496 2105v-749h946v-238h-946v-1118h-295v2359h1474v-254h-1179z" />
    <glyph glyph-name="G" unicode="G" horiz-adv-x="2159" 
d="M1794 0l-78 274q-55 -81 -126 -139.5t-154 -95.5t-176 -54.5t-191 -17.5q-165 0 -302.5 44.5t-247.5 125t-192.5 191t-138 242.5t-83 280.5t-27.5 304.5q0 160 26 314t80 292t137 254.5t197 201t259.5 132t324.5 47.5q177 0 322 -43.5t256 -129t186 -212.5t112 -295
l-303 -69q-20 111 -70 209t-125 171.5t-173 116.5t-213 43q-133 0 -236.5 -45.5t-181 -122.5t-131 -178.5t-86.5 -214.5t-47.5 -230t-14.5 -225q0 -130 20.5 -255t59.5 -237t96 -206.5t129.5 -163t160.5 -107t190 -38.5q150 0 266 49.5t195 135.5t120 202t41 248v143h-590
v250h893v-1192h-184z" />
    <glyph glyph-name="H" unicode="H" horiz-adv-x="2015" 
d="M1532 0v1122h-1036v-1122h-295v2359h295v-979h1036v979h295v-2359h-295z" />
    <glyph glyph-name="I" unicode="I" horiz-adv-x="721" 
d="M209 0v2359h295v-2359h-295z" />
    <glyph glyph-name="J" unicode="J" horiz-adv-x="1217" 
d="M1008 676q0 -161 -41.5 -292t-130.5 -223.5t-229 -143t-337 -50.5q-83 0 -160.5 12t-154.5 33v242q77 -16 151.5 -28.5t151.5 -12.5q105 0 189 22.5t143 70t91 122t32 178.5v1753h295v-1683z" />
    <glyph glyph-name="K" unicode="K" horiz-adv-x="2060" 
d="M1659 0l-623 1303l-540 -672v-631h-295v2359h295v-1355l1065 1355h319l-635 -823l742 -1536h-328z" />
    <glyph glyph-name="L" unicode="L" horiz-adv-x="1663" 
d="M201 0v2359h295v-2097h1134v-262h-1429z" />
    <glyph glyph-name="M" unicode="M" horiz-adv-x="2671" 
d="M2159 0v2064h-13l-700 -2064h-193l-745 2073h-12v-2073h-295v2359h491l668 -1908l614 1908h480v-2359h-295z" />
    <glyph glyph-name="N" unicode="N" horiz-adv-x="2089" 
d="M1565 0l-1069 1896v-1896h-295v2359h336l1032 -1818v1818h295v-2359h-299z" />
    <glyph glyph-name="O" unicode="O" horiz-adv-x="2220" 
d="M2118 1163q-3 -153 -33.5 -300.5t-88 -280.5t-142 -245.5t-195 -195t-248 -128.5t-301.5 -46q-169 0 -310 44.5t-254 124.5t-197.5 191t-141 244t-85 283t-28.5 309q0 158 27.5 310.5t83.5 289.5t140 253t196.5 200.5t253.5 132t311 47.5q172 0 314.5 -48t256 -133
t198 -201.5t139.5 -253.5t81 -289t23 -308zM1806 1163q0 123 -18.5 247t-56 238t-94.5 213.5t-135 172.5t-176.5 115t-219.5 42q-98 0 -180.5 -27t-150 -75t-121 -113.5t-95 -142.5t-70.5 -162t-47.5 -172.5t-27 -174t-8.5 -165.5q0 -101 17 -214t53.5 -224t92.5 -211.5
t134.5 -177.5t179.5 -122.5t227 -45.5q122 0 221 45.5t176 122.5t133.5 178t93.5 212t54.5 225t17.5 216z" />
    <glyph glyph-name="P" unicode="P" horiz-adv-x="1995" 
d="M1925 1610q0 -97 -22.5 -188.5t-65.5 -172t-105.5 -147.5t-143 -116t-178 -77.5t-210.5 -31.5h-704v-877h-295v2359h958q156 -3 273 -40t202.5 -96t141.5 -135.5t89 -159t46.5 -164.5t13.5 -154zM1614 1610q0 97 -29 186.5t-86 159.5t-141 113.5t-195 48.5h-667v-1000
h671q102 4 184.5 45t141 107.5t90 154t31.5 185.5z" />
    <glyph glyph-name="Q" unicode="Q" horiz-adv-x="2220" 
d="M2118 1208q0 -137 -21.5 -271t-64 -258t-107 -234t-149.5 -198.5t-191 -153t-233 -97.5q-2 -25 -0.5 -52t6 -52.5t13 -48.5t22.5 -40q23 -26 52.5 -42.5t64 -26.5t73 -13.5t80.5 -3.5q46 0 89 3t83 10q22 3 45.5 8t48.5 8v-221q-65 -16 -128.5 -24.5t-125.5 -8.5
q-140 0 -244 25.5t-173.5 81.5t-106.5 146.5t-41 221.5q-169 0 -310 44.5t-254 124.5t-197.5 191t-141 244t-85 283t-28.5 309q0 158 27.5 310.5t83.5 289.5t140 253t196.5 200.5t253.5 132t311 47.5q166 0 305.5 -46t251.5 -127.5t197.5 -193t142.5 -243.5t86 -279t29 -299
zM1806 1192q0 121 -19 242t-57.5 232t-96.5 207t-136 166.5t-175.5 111t-215.5 40.5q-98 0 -180.5 -27t-150 -75t-121 -113.5t-95 -142.5t-70.5 -162t-47.5 -172.5t-27 -174t-8.5 -165.5q0 -101 17 -214t53.5 -224t92.5 -211.5t134.5 -177.5t179.5 -122.5t227 -45.5
t226.5 48t178 128.5t132.5 185.5t90.5 219t52 230t16.5 217z" />
    <glyph glyph-name="R" unicode="R" horiz-adv-x="1991" 
d="M1630 0l-438 1020h-696v-1020h-295v2359h987q132 -3 237 -32.5t185.5 -78t138 -112.5t94 -136.5t53.5 -149t17 -150.5q0 -105 -28.5 -201.5t-84 -177.5t-136.5 -142.5t-185 -97.5l458 -1081h-307zM1618 1704q0 94 -32 167t-86.5 124.5t-126.5 80t-152 33.5h-725v-852h696
q84 5 161.5 36t136 87.5t93.5 137.5t35 186z" />
    <glyph glyph-name="S" unicode="S" horiz-adv-x="1991" 
d="M1901 672q0 -143 -57 -271.5t-168.5 -226t-276 -154.5t-379.5 -57q-183 0 -335.5 37t-273 117.5t-208.5 207t-142 306.5l267 61q35 -123 97.5 -220.5t150.5 -166t200.5 -105t247.5 -36.5q150 0 258 38.5t177 103t101.5 149t32.5 176.5q0 89 -34 152.5t-90 108.5
t-128 74.5t-149 49.5l-537 135q-58 14 -117 41t-112.5 66t-100 90.5t-79.5 114.5t-51 137.5t-15 160.5q3 110 35 199.5t87 159.5t129.5 121t162.5 84.5t187 50t202 16.5q147 0 280 -32.5t242.5 -102.5t191 -179.5t126.5 -262.5l-271 -74q-20 98 -69 182t-123 145.5
t-171 96.5t-214 35q-122 0 -216.5 -28.5t-159 -82.5t-98.5 -131.5t-34 -175.5q0 -89 30 -150.5t80.5 -102.5t117.5 -66t141 -42q4 -2 28.5 -8t61.5 -15.5t82.5 -20.5t93.5 -21q56 -16 119.5 -31t134.5 -31q121 -29 221.5 -84.5t172.5 -134.5t111.5 -180.5t39.5 -222.5z" />
    <glyph glyph-name="T" unicode="T" horiz-adv-x="1765" 
d="M1028 2122v-2122h-295v2122h-676v237h1647v-237h-676z" />
    <glyph glyph-name="U" unicode="U" horiz-adv-x="1991" 
d="M1802 713q-8 -168 -65.5 -305.5t-159.5 -235.5t-245.5 -151.5t-323.5 -53.5q-197 0 -349 46.5t-257.5 142.5t-162.5 241.5t-63 343.5v1618h295v-1605q0 -166 47 -279.5t124.5 -183.5t176 -100.5t201.5 -30.5q115 0 213 41t170 116t112.5 179.5t40.5 232.5v1630h246v-1646
z" />
    <glyph glyph-name="V" unicode="V" horiz-adv-x="2028" 
d="M1151 0h-283l-839 2359h299l696 -1966l696 1966h271z" />
    <glyph glyph-name="W" unicode="W" horiz-adv-x="3097" 
d="M2425 0h-275l-565 1847l-569 -1847h-295l-680 2359h299l549 -1937l586 1937h262l557 -1904l516 1904h266z" />
    <glyph glyph-name="X" unicode="X" horiz-adv-x="2179" 
d="M1798 0l-713 1008l-749 -1008h-316l906 1225l-811 1134h344l647 -901l651 901h311l-806 -1114l884 -1245h-348z" />
    <glyph glyph-name="Y" unicode="Y" horiz-adv-x="2089" 
d="M1200 913v-921h-295v921l-872 1446h336l708 -1167l709 1167h282z" />
    <glyph glyph-name="Z" unicode="Z" horiz-adv-x="1987" 
d="M94 0v246l1405 1859h-1339v254h1704v-188l-1446 -1917h1487v-254h-1811z" />
    <glyph glyph-name="bracketleft" unicode="[" horiz-adv-x="885" 
d="M172 -242v2847h590v-176h-361v-2486h361v-185h-590z" />
    <glyph glyph-name="backslash" unicode="\" horiz-adv-x="1319" 
d="M872 -86l-692 2449h250l692 -2449h-250z" />
    <glyph glyph-name="bracketright" unicode="]" horiz-adv-x="885" 
d="M127 -242v185h360v2486h-360v176h590v-2847h-590z" />
    <glyph glyph-name="asciicircum" unicode="^" horiz-adv-x="1245" 
d="M1008 1487l-357 635l-418 -635h-204l491 835h250l447 -835h-209z" />
    <glyph glyph-name="underscore" unicode="_" horiz-adv-x="2032" 
d="M0 -532v143h2032v-143h-2032z" />
    <glyph glyph-name="grave" unicode="`" horiz-adv-x="815" 
d="M479 1397l-360 958h237l250 -958h-127z" />
    <glyph glyph-name="a" unicode="a" horiz-adv-x="1700" 
d="M1286 -4q-15 46 -20 98.5t-9 102.5q-3 27 -3.5 57t-0.5 61q-89 -184 -239 -270t-359 -86q-120 0 -227.5 33t-189 98t-129.5 162.5t-48 226.5q0 78 22 150t63.5 133.5t100 110.5t130.5 81q55 26 114.5 42t122 25t127.5 12t131 3h381v90q0 111 -24 194.5t-74.5 140
t-129.5 85.5t-189 31q-85 1 -164 -17.5t-144 -60t-111.5 -106.5t-64.5 -156l-241 41q16 88 55 157t94.5 120.5t124.5 88t145 59t156 32.5t158 10q177 0 301.5 -35t204 -108.5t118 -188t43.5 -274.5v-783q0 -96 4.5 -186.5t32.5 -173.5h-262zM1253 881h-258
q-69 -3 -143.5 -11.5t-147 -26.5t-138 -47.5t-115 -74.5t-78.5 -107.5t-29 -146.5q0 -80 31 -143t82.5 -107t118 -67t137.5 -23q78 0 147.5 23.5t128.5 65t106.5 98t81.5 122.5t53.5 138.5t22.5 146.5v160z" />
    <glyph glyph-name="b" unicode="b" horiz-adv-x="1802" 
d="M1671 877q0 -115 -18 -227t-55 -213t-94.5 -187t-136.5 -149t-181 -98.5t-228 -35.5q-86 0 -164 23.5t-145 66t-121.5 102.5t-93.5 132l-98 -291h-127v2286h262v-820h12q31 49 77.5 99t107 90.5t135 66t160.5 27.5q173 0 305.5 -62.5t222 -177t135 -275.5t45.5 -357z
M1389 877q0 147 -22 272.5t-74.5 217t-139 143t-215.5 51.5q-103 0 -188.5 -50t-147.5 -129t-96.5 -175.5t-34.5 -190.5v-299q0 -117 36 -219t99 -178t148.5 -120t183.5 -44q91 0 160 29t119 80t83 120.5t53 149.5t28 167.5t8 174.5z" />
    <glyph glyph-name="c" unicode="c" horiz-adv-x="1679" 
d="M1589 582q-24 -131 -86 -243.5t-157 -195t-220.5 -129.5t-277.5 -47q-127 0 -231.5 34.5t-187.5 95.5t-144.5 145t-102 182.5t-60.5 207t-20 220.5q0 111 21.5 221t64 209.5t107 185t149.5 148t191 98t233 35.5q158 0 280.5 -42t211 -119t143.5 -186t78 -243l-242 -33
q-8 85 -44.5 164t-98.5 140t-148 98t-192 37q-90 0 -160 -32.5t-123 -87t-89.5 -126t-59.5 -150.5t-33 -159.5t-10 -153.5q0 -70 10.5 -150.5t34 -161t60.5 -155t89.5 -132t121 -92t155.5 -34.5q115 0 199 41.5t142.5 108.5t93.5 152.5t52 172.5z" />
    <glyph glyph-name="d" unicode="d" horiz-adv-x="1802" 
d="M1348 0v291q-39 -72 -92 -132t-119 -102.5t-143 -66t-163 -23.5q-127 0 -229.5 34.5t-182.5 96.5t-138 147.5t-96 186.5t-56 214t-18 231q0 184 44 343.5t131.5 277t218 184.5t302.5 67q92 0 169.5 -21.5t139.5 -60t107.5 -90t74.5 -111.5h13v820h262v-2286h-225z
M1311 1016q0 62 -16.5 127t-46.5 125.5t-73 114t-96 93t-114.5 62.5t-128.5 23q-131 0 -214.5 -51.5t-133 -143t-70 -217t-25.5 -272.5q-3 -85 4 -171.5t26.5 -166.5t53.5 -150t85 -121.5t121 -81.5t161 -30q101 0 185 42.5t145 116t96.5 172.5t40.5 213v316z" />
    <glyph glyph-name="e" unicode="e" horiz-adv-x="1741" 
d="M393 844q-6 -166 27.5 -299.5t100 -227t164 -144t220.5 -50.5q92 0 170.5 33t138.5 87t99 123.5t51 141.5l274 -41q-20 -111 -87 -204.5t-166 -162t-222.5 -107t-257.5 -38.5q-138 0 -251.5 32t-203.5 90t-156 140t-109.5 181t-65 213t-21.5 237q0 119 21 232t64 213
t108 183.5t152.5 144t199 94.5t246.5 34q127 0 231 -29t186 -82t142.5 -127t102 -164.5t64 -194t27.5 -214.5v-94h-1249zM1352 999q4 108 -23 211.5t-85.5 185t-147.5 131.5t-207 50q-71 0 -135 -23.5t-119 -64.5t-98.5 -96.5t-74 -119.5t-45 -134t-11.5 -140h946z" />
    <glyph glyph-name="f" unicode="f" horiz-adv-x="1155" 
d="M1135 2126q-93 12 -209 12q-74 0 -123.5 -17.5t-81 -48.5t-47.5 -73t-23 -90.5t-7.5 -102t-0.5 -106.5h397v-209h-397v-1491h-266v1491h-303v209h303q-5 132 17.5 249.5t80.5 206t156 140t246 51.5q1 0 12.5 -0.5t29.5 -1.5t41 -1.5t48 -0.5q27 -3 58 -3.5t69 -0.5v-213z
" />
    <glyph glyph-name="g" unicode="g" horiz-adv-x="1823" 
d="M1745 -90q0 -109 -38 -188.5t-102.5 -135.5t-150 -91t-179.5 -55t-191.5 -27t-186.5 -7q-103 0 -202 11.5t-188.5 36t-165 62t-130.5 90t-86 120t-31 151.5q0 69 22.5 135t62 121.5t93.5 96.5t117 61q-51 14 -89 41.5t-64 62.5t-39 75t-13 79q0 202 246 282
q-48 23 -89 58t-71 81t-47.5 103.5t-17.5 126.5q0 140 54.5 242.5t146 170t210.5 100t248 32.5q188 0 348 -74q17 91 48.5 148.5t80 90t115 44.5t154.5 12h86l8 -217h-82q-54 -2 -99.5 -9t-80.5 -27.5t-59.5 -58t-34.5 -98.5q38 -24 71 -61.5t56 -85.5t34 -105t7 -120
q-5 -86 -33.5 -153.5t-73 -119t-102.5 -88.5t-121.5 -62.5t-130.5 -41t-129 -23.5q-42 -5 -84 -1.5t-81 9.5t-73.5 11.5t-60.5 5.5q-31 0 -63.5 -10.5t-59.5 -31t-44.5 -50t-17.5 -68.5q0 -38 11.5 -66t31 -48t46 -33t55.5 -21q49 -12 99 -18t102.5 -8.5t109 -2t119.5 0.5
h128.5t141.5 -6t135.5 -20.5t110.5 -43.5q37 -23 74.5 -57t68.5 -80.5t50.5 -108t19.5 -139.5zM1245 1208q0 100 -30 171t-82 116t-121.5 65.5t-147.5 20.5q-84 0 -155 -20t-122 -65t-79.5 -117t-28.5 -175q0 -87 28 -152.5t78.5 -109t121.5 -65t157 -21.5q77 0 146 19.5
t121.5 61.5t83 109t30.5 162zM1491 -98q0 63 -25.5 114t-68.5 87.5t-98 58t-115 26.5q-115 -6 -230 0q-49 2 -102.5 4t-106.5 5t-104 7.5t-96 12.5q-54 -29 -90.5 -66t-58 -78t-31 -84.5t-9.5 -86.5q0 -53 21.5 -99.5t59.5 -84.5t89.5 -68t112 -50.5t126 -31t132.5 -10.5
q75 0 148 11t139 32t122 51t97.5 68t64.5 84t23 98z" />
    <glyph glyph-name="h" unicode="h" horiz-adv-x="1720" 
d="M1294 0v1151q0 84 -21.5 153.5t-63.5 119t-103 77t-139 27.5q-79 0 -145.5 -23t-120 -64.5t-94.5 -97.5t-69.5 -122t-44 -139t-18.5 -148v-934h-262v2286h262v-865h12q37 72 91 132t124.5 102t158 64.5t192.5 21.5q118 0 211.5 -46.5t158 -127t99 -188t34.5 -228.5v-1151
h-262z" />
    <glyph glyph-name="i" unicode="i" horiz-adv-x="696" 
d="M213 1987v299h270v-299h-270zM217 0v1700h262v-1700h-262z" />
    <glyph glyph-name="j" unicode="j" horiz-adv-x="696" 
d="M213 1987v299h270v-299h-270zM479 -94q0 -149 -39.5 -249t-106 -160t-155 -85.5t-186.5 -25.5q-31 0 -58.5 3t-54 7.5t-53 11t-55.5 14.5v209q112 -26 196 -25.5t139.5 32t83 96.5t27.5 168v1798h262v-1794z" />
    <glyph glyph-name="k" unicode="k" horiz-adv-x="1688" 
d="M1417 0l-524 930l-426 -438v-492h-262v2286h262v-1475l868 889h295l-573 -606l631 -1094h-271z" />
    <glyph glyph-name="l" unicode="l" horiz-adv-x="696" 
d="M217 0v2286h262v-2286h-262z" />
    <glyph glyph-name="m" unicode="m" horiz-adv-x="2814" 
d="M2335 0v1221q0 356 -320 356q-53 0 -109 -18.5t-109 -53.5t-100.5 -86t-84 -116.5t-59 -145t-25.5 -170.5v-987h-262v1245q0 172 -74 252t-221 80q-67 0 -129 -24t-116.5 -66.5t-100 -102t-79 -129.5t-53 -148.5t-22.5 -160.5v-946h-262v1700h237v-352h9q29 78 85.5 148
t130 122.5t159.5 83.5t174 31q117 0 204 -26.5t147 -76t94.5 -119t45.5 -155.5q25 86 86 155.5t141.5 119t172.5 76t178 26.5q123 0 218.5 -28t162 -87t102.5 -151.5t41 -221.5v-1245h-262z" />
    <glyph glyph-name="n" unicode="n" horiz-adv-x="1733" 
d="M1282 0v1237q0 74 -17.5 136.5t-54 107.5t-94 70.5t-137.5 25.5q-73 0 -139 -26.5t-122.5 -73t-103 -109.5t-80 -137t-53 -155t-22.5 -163v-913h-262v1700h245v-352h9q37 86 95.5 157t133 121.5t163 78.5t185.5 28q130 0 225.5 -33.5t158.5 -96.5t95 -152.5t37 -201.5
v-1249h-262z" />
    <glyph glyph-name="o" unicode="o" horiz-adv-x="1729" 
d="M1626 864q0 -119 -22.5 -231.5t-67 -212t-110 -183t-151.5 -143.5t-192 -93.5t-231 -33.5q-127 0 -232.5 32.5t-190 92t-147 142t-104.5 182.5t-63 214.5t-21 237.5q0 118 22 229t66 209t109 179.5t151.5 140t194 91t235.5 32.5q126 0 231 -34.5t188.5 -95.5t146.5 -145
t104.5 -182t62.5 -207t21 -221zM1331 868q0 165 -30 297t-89 224.5t-147 142t-205 49.5t-205.5 -51t-148.5 -144.5t-90.5 -225t-30.5 -292.5q0 -173 30 -310t89 -232t147 -145t205 -50q129 0 219.5 55t147 153.5t82.5 233.5t26 295z" />
    <glyph glyph-name="p" unicode="p" horiz-adv-x="1802" 
d="M1688 860q0 -123 -22.5 -237.5t-65.5 -214.5t-105.5 -182.5t-141.5 -142t-174.5 -92t-203.5 -32.5q-91 0 -165.5 20t-136.5 58t-113.5 94.5t-96.5 130.5v-827h-262v2265h237v-320h8q65 174 200 267.5t333 93.5q119 0 217.5 -34.5t177.5 -95.5t138 -144.5t98 -181.5
t58.5 -206t19.5 -219zM1393 864q0 79 -11.5 160.5t-35.5 158t-61.5 144t-90.5 117.5t-121.5 79t-154.5 29t-161.5 -41.5t-135 -107.5t-100.5 -147.5t-58 -161.5v-435q0 -57 16.5 -118t46.5 -118.5t71.5 -109t91.5 -90.5t107 -61.5t117 -22.5q117 0 206.5 59.5t150.5 160
t92 231.5t31 274z" />
    <glyph glyph-name="q" unicode="q" horiz-adv-x="1802" 
d="M1331 -565v827q-43 -72 -93.5 -128.5t-111 -95t-132.5 -59t-158 -20.5q-169 0 -305 64t-231 182t-146.5 284.5t-51.5 370.5q0 120 21 232.5t62.5 211.5t103.5 180.5t143.5 139.5t182.5 89t221 28q188 -3 314 -85.5t198 -246.5h8l123 291h114v-2265h-262zM1331 1094
q-17 80 -58 163.5t-100 152t-134.5 112t-161.5 43.5q-88 0 -157.5 -28.5t-122.5 -78.5t-90.5 -118t-61 -148t-34 -167.5t-10.5 -176.5q0 -160 33 -292t95 -226.5t151 -146.5t201 -52q60 0 117 23t107 62t91.5 91.5t71.5 111t46.5 120.5t16.5 120v435z" />
    <glyph glyph-name="r" unicode="r" horiz-adv-x="1147" 
d="M1085 1479q-15 0 -30 0.5t-27 3.5q-22 0 -41 2t-29 2q-79 0 -145 -25.5t-119 -70t-93.5 -105t-67.5 -130.5t-40.5 -146.5t-13.5 -153.5v-856h-262v1700h234v-373h8q24 75 66.5 148.5t104.5 131.5t143.5 94t184.5 36h41q22 0 43.5 -4.5t42.5 -8.5v-245z" />
    <glyph glyph-name="s" unicode="s" horiz-adv-x="1597" 
d="M1483 418q0 -123 -56.5 -211.5t-150.5 -145t-215 -83.5t-250 -27q-128 0 -244 21t-210.5 69.5t-162 128.5t-96.5 199l275 57q15 -80 57.5 -138t102 -95.5t132.5 -55.5t150 -18q63 0 131.5 16.5t126 51t94.5 87.5t37 127q0 36 -8.5 73.5t-30 72t-58 63t-91.5 45.5
l-414 111q-97 24 -183 64t-151 100.5t-103 144t-38 195.5q0 120 53.5 209t142 148t202 88.5t233.5 29.5q129 0 235.5 -25.5t188.5 -72.5t139 -114.5t88 -152.5l-250 -45q-21 43 -48.5 86.5t-71 78t-108 56t-161.5 21.5q-86 0 -155.5 -20.5t-119 -56t-76 -84t-26.5 -105.5
q0 -65 24.5 -110t65 -77t92 -53.5t105.5 -38.5q68 -15 131.5 -33t122.5 -36q51 -17 102.5 -34.5t97.5 -34.5t83.5 -33t60.5 -30q54 -37 92.5 -78t63.5 -90.5t37 -109.5t12 -135z" />
    <glyph glyph-name="t" unicode="t" horiz-adv-x="1159" 
d="M795 -16q-112 -6 -200 19t-149.5 83.5t-95.5 151t-39 221.5v1032h-299v209h312l41 442h208v-442h422v-209h-422v-1032q0 -283 250 -283q3 0 36 0.5t79 3.5q22 0 49.5 0.5t61.5 3.5v-188z" />
    <glyph glyph-name="u" unicode="u" horiz-adv-x="1737" 
d="M1303 0v311h-9q-32 -80 -85 -143.5t-121.5 -108t-149 -68.5t-168.5 -24q-140 0 -244.5 43t-175 118t-108 176t-41.5 216v1180h262v-1196q0 -78 22 -144.5t64 -114.5t104 -75t142 -27q111 0 198.5 49t149 131t96 188.5t39.5 221.5v967h262v-1700h-237z" />
    <glyph glyph-name="v" unicode="v" horiz-adv-x="1577" 
d="M922 0h-258l-648 1700h287l500 -1389l516 1389h242z" />
    <glyph glyph-name="w" unicode="w" horiz-adv-x="2367" 
d="M1839 0h-217l-401 1274l-443 -1274h-217l-536 1700h249l410 -1290l442 1290h193l410 -1290l397 1290h213z" />
    <glyph glyph-name="x" unicode="x" horiz-adv-x="1577" 
d="M1237 0l-471 692l-483 -692h-258l610 885l-557 815h307l406 -594l413 594h262l-544 -782l626 -918h-311z" />
    <glyph glyph-name="y" unicode="y" horiz-adv-x="1577" 
d="M868 -160q-41 -117 -92.5 -199.5t-117 -135.5t-146 -80t-180.5 -31q-59 0 -111.5 6.5t-101.5 21.5v213q85 -24 172 -24q65 0 117 17t92.5 46.5t71 70t55 87t43.5 97t35 100.5l-672 1671h274l520 -1323l463 1323h250z" />
    <glyph glyph-name="z" unicode="z" horiz-adv-x="1548" 
d="M94 0v205l979 1286h-938v209h1286v-148l-1028 -1347h1049v-205h-1348z" />
    <glyph glyph-name="braceleft" unicode="{" horiz-adv-x="979" 
d="M651 -254q-52 0 -102 18.5t-89 62.5t-63 116t-24 180l4 598q0 98 -19 175.5t-50.5 133t-72 89t-83.5 44.5v41q43 8 83.5 40.5t72 88t50.5 133.5t19 176l-4 599q0 106 23.5 178t62 116t88.5 63t104 19h201v-172l-139 -4q-42 -2 -68 -14.5t-41 -37t-20.5 -60.5t-5.5 -84
v-340q0 -66 0.5 -128t1.5 -110.5t1.5 -78.5t0.5 -32q0 -75 -10 -130.5t-25 -96t-34 -67.5t-36.5 -44t-32.5 -25.5t-22 -12.5q7 -5 22 -14t32.5 -25.5t36.5 -42t34 -64.5t25 -92.5t10 -126.5q-3 -96 -3.5 -181t-0.5 -159v-344q1 -49 7 -87.5t20.5 -65t40 -41t67.5 -15.5
l139 -4v-172h-201z" />
    <glyph glyph-name="bar" unicode="|" horiz-adv-x="717" 
d="M225 -487v3334h267v-3334h-267z" />
    <glyph glyph-name="braceright" unicode="}" horiz-adv-x="979" 
d="M827 1163q-43 -11 -83.5 -44.5t-72 -89t-50.5 -133t-19 -175.5l4 -598q0 -108 -24 -180t-63 -116t-89 -62.5t-102 -18.5h-201v172l139 4q42 1 67.5 15.5t40 41t20 65t7.5 87.5q0 1 -0.5 30.5t-1.5 77t-1.5 109t-0.5 127.5v340q0 73 10 126.5t25 92.5t34 64.5t36.5 42
t32.5 25.5t22 14q-7 4 -22 12.5t-32.5 25.5t-36.5 44t-34 67.5t-25 96t-10 130.5v349q0 77 0.5 160.5t3.5 179.5q0 48 -5.5 84t-20.5 60.5t-41 37t-68 14.5l-139 4v172h201q52 0 102 -18.5t89 -62t63 -116t24 -179.5l-4 -599q0 -98 19 -176t50.5 -133.5t72 -88t83.5 -40.5
v-41z" />
    <glyph glyph-name="asciitilde" unicode="~" horiz-adv-x="2310" 
d="M1446 827l-610 328l-566 -225v205l566 217l610 -324l594 221v-205z" />
    <glyph glyph-name="thothannobasethai" unicode="&#xf700;" horiz-adv-x="1823" 
d="M1602 840q0 -124 -28.5 -234.5t-76 -204t-108.5 -167.5t-125.5 -126t-128 -80t-115.5 -28h-315l-197 717q-11 37 -25.5 58.5t-34 33.5t-43.5 16t-53 6l70 222q81 0 138.5 -22.5t95 -57t57.5 -76t28 -78.5l177 -647h16q20 0 57.5 16t81.5 49.5t90 86t83.5 125.5t61 168
t23.5 214q0 150 -23.5 263.5t-63.5 196.5t-93 138t-112 88t-121 46.5t-119 13.5q-80 0 -150 -13.5t-131 -45.5t-112.5 -84.5t-94.5 -130.5l-258 49q36 75 89.5 133t117.5 101t135 72.5t142 48t138.5 26.5t123.5 8q41 0 89.5 -4.5t100.5 -15t106.5 -27.5t108.5 -43
q37 23 58 53t32 63t15.5 66.5t9.5 62.5h237q-6 -38 -21 -82.5t-42.5 -89t-68 -86t-97.5 -73.5q66 -51 117 -114.5t86.5 -149.5t53.5 -199t18 -262z" />
    <glyph glyph-name="yoyingnobasethai" unicode="&#xf70f;" horiz-adv-x="2613" 
d="M2392 541q0 -77 -10 -150.5t-35 -138.5t-68 -119.5t-108 -94t-155 -61.5t-210 -22q-129 0 -224.5 21.5t-163 60t-111 93t-68 119.5t-34 139t-9.5 153v684q0 75 -16.5 138.5t-56 110t-105.5 73t-166 26.5q-97 0 -168 -28t-117.5 -76t-69 -112t-22.5 -136v-1065h197v-156
h-459v991q0 66 4.5 117.5t18 96t39.5 85.5t69 86q-9 3 -20.5 8.5t-20.5 8.5q-22 9 -46 12.5t-52 3.5v111q43 35 114.5 73.5t162 70.5t194 52.5t209.5 20.5q121 0 224.5 -25t179 -79.5t118.5 -141t43 -209.5v-766q0 -87 21 -160t65 -125.5t111 -82t159 -29.5q80 0 140.5 30
t101.5 83t61.5 125.5t20.5 158.5v1184h262v-1159z" />
    <glyph glyph-name="quoteleft" unicode="&#x2018;" horiz-adv-x="819" 
d="M451 2413h127l-218 -517h160v-356h-360v340z" />
    <glyph glyph-name="quoteright" unicode="&#x2019;" horiz-adv-x="819" 
d="M324 1540h-127l217 516h-160v357h360v-340z" />
    <glyph glyph-name="quotedblleft" unicode="&#x201c;" horiz-adv-x="1348" 
d="M451 2413h127l-218 -517h160v-356h-360v340zM1024 2413h127l-217 -517h160v-356h-361v340z" />
    <glyph glyph-name="quotedblright" unicode="&#x201d;" horiz-adv-x="1348" 
d="M897 1540h-127l217 516h-160v357h361v-340zM324 1540h-127l217 516h-160v357h360v-340z" />
    <glyph glyph-name="bullet" unicode="&#x2022;" horiz-adv-x="1630" 
d="M1487 827q0 -92 -26 -177t-72.5 -159.5t-110.5 -135t-140.5 -104t-162.5 -67.5t-176 -24t-173.5 24t-156 67.5t-132 104t-102 135t-65.5 159.5t-23 177t24 177.5t67.5 159.5t104.5 135t135 104.5t159.5 67.5t177.5 24t178 -24t160.5 -67.5t136 -104.5t105.5 -135
t68 -159.5t24 -177.5z" />
    <glyph glyph-name="endash" unicode="&#x2013;" horiz-adv-x="2048" 
d="M53 754v172h1938v-172h-1938z" />
    <glyph glyph-name="emdash" unicode="&#x2014;" horiz-adv-x="4096" 
d="M53 754v172h3986v-172h-3986z" />
    <glyph glyph-name="uni00A0" unicode="&#xa0;" horiz-adv-x="1024" 
 />
    <glyph glyph-name="kokaithai" unicode="&#xe01;" horiz-adv-x="1778" 
d="M1294 0v1225q0 75 -22.5 138.5t-70 110t-120 73t-172.5 26.5q-94 0 -173.5 -28t-137.5 -76t-90.5 -112t-32.5 -136v-1221h-262v991q0 66 4.5 117.5t18 96t39.5 85.5t69 86q-9 3 -20.5 8.5t-20.5 8.5q-22 9 -46 12.5t-52 3.5v111q28 23 74.5 48.5t105.5 49.5t127 45.5
t140.5 38t146.5 26t143 9.5q121 0 231 -25t193.5 -79.5t132.5 -141t49 -209.5v-1282h-254z" />
    <glyph glyph-name="khokhaithai" unicode="&#xe02;" horiz-adv-x="1556" 
d="M1327 500q0 -123 -30 -223.5t-98 -172t-177.5 -110.5t-267.5 -39q-132 0 -244 27.5t-193.5 87t-127.5 151.5t-46 221q0 99 33 189t82 172t106.5 158.5t106.5 150t82 145t33 144.5q0 60 -24.5 102t-69.5 59.5t-108.5 7.5t-141.5 -54l-45 147q47 24 111.5 42.5t134 24
t138 -5t122 -44t87 -93.5t33.5 -153q0 -74 -17 -138.5t-45.5 -122.5t-64.5 -112t-73.5 -107.5t-73.5 -107.5t-64.5 -112.5t-45.5 -123.5t-17 -139q0 -111 31.5 -181.5t79 -111.5t103.5 -56.5t105 -15.5q57 0 116 17.5t107 59.5t78.5 113t30.5 179v1225h254v-1200z" />
    <glyph glyph-name="khokhuatthai" unicode="&#xe03;" horiz-adv-x="1556" 
d="M1327 500q0 -123 -30 -223.5t-98 -172t-177.5 -110.5t-267.5 -39q-132 0 -244 27t-193.5 85.5t-127.5 150t-46 220.5q0 101 35.5 195t89 181t115.5 169t115.5 159.5t89 152t35.5 147.5q0 49 -24 74t-62 26t-85.5 -23t-95.5 -73q-17 17 -41.5 35t-54.5 34.5t-64 30
t-69 19.5l29 164q20 -8 43.5 -15.5t49.5 -19.5t54 -32t57 -52q38 49 89 78.5t106 39t108 -0.5t95 -40.5t68 -81.5t26 -122q0 -100 -32 -186.5t-79.5 -166.5t-103.5 -156.5t-103.5 -155.5t-79.5 -164.5t-32 -182.5q0 -115 31.5 -186.5t79 -111t103.5 -53.5t105 -14
q57 0 116 17.5t107 59.5t78.5 113t30.5 179v1225h254v-1200z" />
    <glyph glyph-name="khokhwaithai" unicode="&#xe04;" horiz-adv-x="1749" 
d="M1294 0v1200q0 97 -31.5 168.5t-87 118.5t-130 70.5t-160.5 23.5q-88 0 -165.5 -23.5t-135.5 -70.5t-91.5 -118.5t-33.5 -168.5v-401q27 60 64.5 105t80 77t88 52t90 31t85.5 13.5t75 -0.5v-229q-62 8 -121.5 -6.5t-113 -44.5t-99 -72t-79 -88.5t-52 -93.5t-18.5 -88
v-455h-254v1180q0 111 42 213t126.5 180t213 125t302.5 47q172 0 296.5 -47t205 -125t119 -180t38.5 -213v-1180h-254z" />
    <glyph glyph-name="khokhonthai" unicode="&#xe05;" horiz-adv-x="1765" 
d="M1282 0v1196q0 66 -18 124t-46 104t-62 78t-66 46l-226 -147l-221 147q-35 -14 -70.5 -46t-63.5 -78t-45.5 -104t-17.5 -124v-397q42 90 103.5 146.5t129.5 87.5t134 40t117 4v-229q-62 8 -121.5 -6.5t-113.5 -44.5t-99.5 -72t-78.5 -88.5t-52 -93.5t-19 -88v-455h-253
v1167q0 100 27.5 192.5t83 167.5t138 129t193.5 77l229 -172l246 172q105 -23 184.5 -75t133 -126.5t81 -167t27.5 -197.5v-1167h-254z" />
    <glyph glyph-name="khorakhangthai" unicode="&#xe06;" horiz-adv-x="1749" 
d="M1524 483q0 -118 -36 -214t-103 -164t-163.5 -105t-217.5 -37q-65 0 -144 18.5t-155 59t-140.5 104t-101.5 154.5v-299h-238v672q0 106 10.5 173.5t29.5 113t45.5 76.5t58.5 63q66 72 118 133.5t81 113t30.5 93t-33.5 73.5q-18 19 -52.5 21.5t-71.5 -7t-71 -29.5t-51 -46
q-17 17 -41 34.5t-53 33.5t-62.5 28.5t-68.5 18.5l29 164q20 -8 43.5 -15.5t49.5 -19.5t54.5 -32t57.5 -52q35 45 76 70.5t82.5 37.5t81 12t71.5 -6q43 -11 77 -33.5t57.5 -54.5t35 -71t10.5 -82q-5 -62 -20 -112.5t-42 -98.5t-67.5 -99t-95.5 -112q-29 -31 -50 -65.5
t-34.5 -70t-20 -70t-6.5 -64.5v-123q0 -53 13.5 -112t40 -116t65 -109.5t88.5 -93t110 -66t130 -28.5q61 -5 110.5 10t87 45t64.5 72t44.5 91t25.5 102.5t8 105.5v1131h254v-1217z" />
    <glyph glyph-name="ngonguthai" unicode="&#xe07;" horiz-adv-x="1741" 
d="M1532 852q-3 -112 -25 -218t-60 -201t-91 -174.5t-117 -137t-138 -89.5t-155 -32h-397l-418 1507h254l369 -1339h53q75 0 154 45t145 131t111 211t53 285q3 89 -2.5 176t-22 165.5t-46.5 146t-76 116.5t-110 76.5t-149 27.5q-37 0 -73 -3.5t-70 -24.5l-29 159
q50 22 117.5 33.5t132.5 11.5q123 0 215.5 -34.5t159 -96t109.5 -144.5t67.5 -180t33 -203.5t5.5 -213.5z" />
    <glyph glyph-name="chochanthai" unicode="&#xe08;" horiz-adv-x="1679" 
d="M1196 0h-397l-238 770q-11 29 -29.5 46t-40 24.5t-43 6.5t-38.5 -7l86 241q66 6 113.5 -8.5t81.5 -44t55.5 -71t35.5 -89.5l213 -692l197 840q32 135 12.5 240t-79.5 177.5t-155.5 110t-215.5 37.5q-32 0 -71.5 -4t-83 -14t-87.5 -28t-84.5 -45t-75 -65.5t-57.5 -89.5
l-266 49q48 97 126.5 165.5t176 112t207.5 63.5t219 20q215 0 365 -60t235.5 -164t107 -244.5t-19.5 -301.5z" />
    <glyph glyph-name="chochingthai" unicode="&#xe09;" horiz-adv-x="1761" 
d="M1303 0v299q-37 -91 -102 -154.5t-141 -104t-155 -59t-143 -18.5q-122 0 -219 37t-164.5 105t-104 164t-36.5 214v484h258v-398q0 -52 8 -105.5t25.5 -102.5t44.5 -91t64.5 -72t87 -45t110.5 -10q70 3 130.5 28.5t109.5 66t86.5 93t63.5 109.5t39 116t13 112v491
q0 38 -5 84t-20 93t-44 91t-76.5 78.5t-117.5 55t-167 20.5q-48 0 -108 -9t-120 -35.5t-114.5 -75t-91.5 -126.5l-267 49q40 97 113 165.5t166.5 112t201 63.5t216.5 20q139 0 245 -25t183 -67.5t128.5 -99t82.5 -119.5t44 -129.5t13 -128.5v-1176h-237z" />
    <glyph glyph-name="chochangthai" unicode="&#xe0a;" horiz-adv-x="1556" 
d="M1446 1835q0 -83 -22 -164.5t-62.5 -153.5t-97 -131t-125.5 -96q24 -9 48 -21.5t46 -31.5q18 -17 36 -38t31.5 -48.5t22 -61.5t8.5 -77v-512q0 -123 -30 -223.5t-98 -172t-177.5 -110.5t-267.5 -39q-132 0 -244 27.5t-193.5 87t-127.5 151.5t-46 221q0 99 33 189t82 172
t106.5 158.5t106.5 150t82 145t33 144.5q0 60 -24.5 102t-69.5 59.5t-108.5 7.5t-141.5 -54l-45 147q47 24 111.5 42.5t134 24t138 -5t122 -44t87 -93.5t33.5 -153q0 -74 -17 -138.5t-45.5 -122.5t-64.5 -112t-73.5 -107.5t-73.5 -107.5t-64.5 -112.5t-45.5 -123.5t-17 -139
q0 -111 31.5 -181.5t79 -111.5t103.5 -56.5t105 -15.5q57 0 116 17.5t107 59.5t78.5 113t30.5 179v553q0 49 -13.5 89.5t-33.5 70.5t-43 49t-41 25v12q55 38 98.5 100.5t73.5 138.5t46 159t16 163h266z" />
    <glyph glyph-name="sosothai" unicode="&#xe0b;" horiz-adv-x="1556" 
d="M1446 1835q0 -83 -22 -164.5t-62.5 -153.5t-97 -131t-125.5 -96q24 -9 48 -21.5t46 -31.5q18 -17 36 -38t31.5 -48.5t22 -61.5t8.5 -77v-512q0 -123 -30 -223.5t-98 -172t-177.5 -110.5t-267.5 -39q-132 0 -244 27t-193.5 85.5t-127.5 150t-46 220.5q0 101 35.5 195
t89 181t115.5 169t115.5 159.5t89 152t35.5 147.5q0 49 -24 74t-62 26t-85.5 -23t-95.5 -73q-17 17 -41.5 35t-54.5 34.5t-64 30t-69 19.5l29 164q20 -8 43.5 -15.5t49.5 -19.5t54.5 -32t57.5 -52q38 49 89 78.5t105.5 39t107.5 -0.5t95 -40.5t68 -81.5t26 -122
q0 -100 -32 -186.5t-79.5 -166.5t-103.5 -156.5t-103.5 -155.5t-79.5 -164.5t-32 -182.5q0 -115 31.5 -186.5t79 -111t103.5 -53.5t105 -14q57 0 116 17.5t107 59.5t78.5 113t30.5 179v553q0 49 -13.5 89.5t-33.5 70.5t-43 49t-41 25v12q55 38 98.5 100.5t73.5 138.5t46 159
t16 163h266z" />
    <glyph glyph-name="chochoethai" unicode="&#xe0c;" horiz-adv-x="2613" 
d="M2392 401q0 -103 -31.5 -185t-92 -139t-148 -87.5t-199.5 -30.5q-81 0 -157.5 23.5t-141 63t-112.5 91.5t-72 109v-246h-242v1225q0 75 -16.5 138.5t-56 110t-105.5 73t-166 26.5q-97 0 -168 -28t-117.5 -76t-69 -112t-22.5 -136v-1065h197v-156h-459v991q0 66 4.5 117.5
t18 96t39.5 85.5t69 86q-9 3 -20.5 8.5t-20.5 8.5q-22 9 -46 12.5t-52 3.5v111q43 35 114.5 73.5t162 70.5t194 52.5t209.5 20.5q121 0 224.5 -25t179 -79.5t118.5 -141t43 -209.5v-717q0 -40 13.5 -86t39 -92t60.5 -88.5t78.5 -75t93.5 -52t104 -19.5q148 0 219.5 73.5
t71.5 233.5v1241h262v-1299z" />
    <glyph glyph-name="dochadathai" unicode="&#xe0e;" horiz-adv-x="1815" 
d="M1585 -152q0 -71 -23 -141t-72 -126t-124.5 -91t-181.5 -35h-365l-172 172l-172 -172h-369v172h312l229 230l230 -230h213q44 0 87.5 8.5t77.5 40t55 93.5t21 170v1286q0 75 -23 138.5t-70 110t-119.5 73t-172.5 26.5q-94 0 -173.5 -28t-137.5 -76t-90.5 -112t-32.5 -136
v-1221h-442v164h180v827q0 66 4.5 117.5t18 96t39.5 85.5t69 86q-9 3 -20.5 8.5t-20.5 8.5q-22 9 -46 12.5t-52 3.5v111q43 35 124 73.5t182.5 70.5t213.5 52.5t217 20.5q121 0 231 -25t193.5 -79.5t132.5 -141t49 -209.5v-1434z" />
    <glyph glyph-name="topatakthai" unicode="&#xe0f;" horiz-adv-x="1815" 
d="M1585 -152q0 -71 -24 -141t-74 -126t-126.5 -91t-180.5 -35h-107l-172 172l-172 -172h-115l-172 172l-172 -172h-164v172h107l229 230l230 -230l229 230l229 -230q48 0 85 13t63 44t39.5 83.5t13.5 130.5v1327q0 75 -23 138.5t-70 110t-119.5 73t-172.5 26.5
q-94 0 -173.5 -28t-137.5 -76t-90.5 -112t-32.5 -136v-1221h-442v164h180v827q0 66 4.5 117.5t18 96t39.5 85.5t69 86q-9 3 -20.5 8.5t-20.5 8.5q-22 9 -46 12.5t-52 3.5v111q43 35 124 73.5t182.5 70.5t213.5 52.5t217 20.5q121 0 231 -25t193.5 -79.5t132.5 -141
t49 -209.5v-1434z" />
    <glyph glyph-name="thothanthai" unicode="&#xe10;" horiz-adv-x="1741" 
d="M1602 840q0 -124 -28.5 -234.5t-76 -204t-108.5 -167.5t-125.5 -126t-128 -80t-115.5 -28h-315l-197 717q-11 37 -25.5 58.5t-34 33.5t-43.5 16t-53 6l70 222q81 0 138.5 -22.5t95 -57t57.5 -76t28 -78.5l177 -647h16q20 0 57.5 16t81.5 49.5t90 86t83.5 125.5t61 168
t23.5 214q0 150 -23.5 263.5t-63.5 196.5t-93 138t-112 88t-121 46.5t-119 13.5q-80 0 -150 -13.5t-131 -45.5t-112.5 -84.5t-94.5 -130.5l-258 49q36 75 89.5 133t117.5 101t135 72.5t142 48t138.5 26.5t123.5 8q41 0 89.5 -4.5t100.5 -15t106.5 -27.5t108.5 -43
q37 23 58 53t32 63t15.5 66.5t9.5 62.5h237q-6 -38 -21 -82.5t-42.5 -89t-68 -86t-97.5 -73.5q66 -51 117 -114.5t86.5 -149.5t53.5 -199t18 -262zM1470 -213q0 -103 -30.5 -170t-80.5 -106.5t-115 -55.5t-134 -16h-262l-172 172l-172 -172h-307v172h249l230 229l229 -229
h111q48 0 86 6t64.5 26t40.5 59t14 105v107h249v-127z" />
    <glyph glyph-name="thonangmonthothai" unicode="&#xe11;" horiz-adv-x="1806" 
d="M1323 0v1257q0 34 -5.5 70.5t-18 71.5t-33.5 67t-53 55.5t-75.5 37.5t-101.5 14q-65 0 -126 -22t-116 -60.5t-100.5 -90.5t-78.5 -112.5t-51.5 -127t-18.5 -132.5v-1028h-262v1188q-17 69 -49 121.5t-71 90t-82 61t-81 34.5l78 209q32 -14 71 -42t75.5 -63t67.5 -73
t48 -72h12l107 246h86v-275l8 -4q43 86 102.5 146.5t126.5 98t138 54.5t137 17q121 0 218.5 -30.5t166.5 -91t106 -150.5t37 -208v-1257h-262z" />
    <glyph glyph-name="thophuthaothai" unicode="&#xe12;" horiz-adv-x="2744" 
d="M2523 401q0 -103 -31.5 -185t-92 -139t-148 -87.5t-199.5 -30.5q-81 0 -157.5 23.5t-141 63t-112.5 91.5t-72 109v-246h-246v1495l-250 -184q-29 66 -56.5 113.5t-61.5 77.5t-78 44.5t-107 14.5q-78 0 -146 -50t-117 -143t-75.5 -225.5t-21.5 -298.5q4 -154 28 -280
t74 -217.5t129 -146t195 -65.5q18 -2 39.5 0t42.5 7t40 13.5t33 20.5l33 -147q-23 -14 -53.5 -25.5t-64 -19.5t-69 -12.5t-67.5 -4.5q-106 0 -195.5 33t-162 91.5t-128 139.5t-93.5 176.5t-57 202.5t-19 217q0 215 47 383t133.5 283.5t208 175.5t270.5 60q108 0 195.5 -51
t152.5 -171l238 189h221v-1131q0 -40 13.5 -86t39 -92t60.5 -88.5t78.5 -75t93.5 -52t104 -19.5q148 0 219.5 73.5t71.5 233.5v1237h262v-1295z" />
    <glyph glyph-name="nonenthai" unicode="&#xe13;" horiz-adv-x="2613" 
d="M2142 0v246q-24 -57 -73 -109t-113.5 -91.5t-140.5 -63t-156 -23.5q-112 0 -198.5 30.5t-145 87.5t-89 139t-30.5 185v824q0 75 -16.5 138.5t-56 110t-105.5 73t-166 26.5q-97 0 -168 -28t-117.5 -76t-69 -112t-22.5 -136v-1065h197v-156h-459v991q0 66 4.5 117.5t18 96
t39.5 85.5t69 86q-9 3 -20.5 8.5t-20.5 8.5q-22 9 -46 12.5t-52 3.5v111q43 35 114.5 73.5t162 70.5t194 52.5t209.5 20.5q121 0 224.5 -25t179 -79.5t118.5 -141t43 -209.5v-823q0 -160 71.5 -233.5t219.5 -73.5q54 0 104 19.5t93.5 52t78.5 75t60.5 88.5t39 92t13.5 86
v1135h258v-1700h-246z" />
    <glyph glyph-name="dodekthai" unicode="&#xe14;" horiz-adv-x="1823" 
d="M1343 0v1094q0 123 -29 214t-85 152t-137.5 91t-186.5 30q-60 0 -119.5 -15.5t-113.5 -50t-100.5 -89.5t-80.5 -132.5t-53.5 -180t-19.5 -232.5q0 -154 29 -288.5t87 -234.5t144.5 -157.5t202.5 -57.5q37 0 75 8.5t60 20.5l33 -143q-47 -28 -102.5 -41t-123.5 -13
q-115 0 -210.5 36.5t-172.5 100t-135 149.5t-96.5 185t-58 206t-19.5 212q0 210 55.5 374t157.5 276.5t246.5 171.5t322.5 59q144 0 270 -33t219 -105.5t146.5 -188t53.5 -279.5v-1139h-259z" />
    <glyph glyph-name="totaothai" unicode="&#xe15;" horiz-adv-x="1823" 
d="M1339 0v1503l-258 -180q-31 67 -68 110t-78 68t-84.5 34t-88.5 9q-65 0 -131.5 -40.5t-121.5 -125t-89.5 -216t-34.5 -314.5q0 -147 26 -274t79.5 -222t136 -152t196.5 -65q18 -2 39.5 0t43 6.5t40.5 12t33 18.5l33 -143q-47 -28 -109 -41t-145 -13q-110 0 -202 34
t-166.5 94.5t-130.5 142.5t-93.5 177.5t-56.5 201t-19 211.5q0 169 32 300t85 229t122 166t143 110t148 60.5t138 18.5q66 0 122.5 -16t103 -43.5t82.5 -64.5t60 -80l230 184h241v-1700h-258z" />
    <glyph glyph-name="thothungthai" unicode="&#xe16;" horiz-adv-x="1778" 
d="M1294 0v1225q0 75 -22.5 138.5t-70 110t-120 73t-172.5 26.5q-94 0 -173.5 -28t-137.5 -76t-90.5 -112t-32.5 -136v-1065h197v-156h-459v991q0 66 4.5 117.5t18 96t39.5 85.5t69 86q-9 3 -20.5 8.5t-20.5 8.5q-22 9 -46 12.5t-52 3.5v111q28 23 74.5 48.5t105.5 49.5
t127 45.5t140.5 38t146.5 26t143 9.5q121 0 231 -25t193.5 -79.5t132.5 -141t49 -209.5v-1282h-254z" />
    <glyph glyph-name="thothahanthai" unicode="&#xe17;" horiz-adv-x="1749" 
d="M1266 0v1257q0 51 -12.5 106.5t-45 102t-88 77t-141.5 30.5q-65 0 -126.5 -22t-116 -60.5t-100.5 -90.5t-79 -112.5t-51.5 -127t-18.5 -132.5v-1028h-262v1700h242v-295l8 -4q42 86 104.5 149t134.5 104.5t146 62t139 20.5q121 0 219 -30.5t167 -91t106 -150.5t37 -208
v-1257h-262z" />
    <glyph glyph-name="thothongthai" unicode="&#xe18;" horiz-adv-x="1692" 
d="M1540 467q0 -122 -51.5 -217.5t-141.5 -162t-213 -101.5t-266 -35q-178 0 -302 45t-201.5 119t-112.5 169t-35 195v451h250v-434q0 -69 24.5 -137t75 -121t126.5 -86t179 -33q78 0 149.5 24t126 68t86.5 105t32 135q0 54 -10.5 101.5t-38.5 89.5t-77.5 78t-127.5 66
l-520 205q-74 29 -130.5 62.5t-95 77.5t-58.5 102.5t-20 138.5q0 74 30 137t83 108.5t126 70.5t159 24l901 -12l-37 -180l-836 8q-37 0 -69.5 -11.5t-57 -31t-39 -46t-14.5 -55.5q0 -35 11 -60.5t32 -44.5t50.5 -34t66.5 -28l516 -197q100 -38 179.5 -86t135 -113.5
t85.5 -152t30 -201.5z" />
    <glyph glyph-name="nonuthai" unicode="&#xe19;" horiz-adv-x="1749" 
d="M1303 0l-13 299q-37 -91 -101.5 -154.5t-140.5 -104t-155 -59t-143 -18.5q-122 0 -219 37t-165 105t-104.5 164t-36.5 214v1217h258v-1131q0 -52 8 -105.5t25.5 -102.5t44.5 -91t65 -72t87 -45t110 -10q71 3 131 28.5t109.5 66t87 93t63.5 109.5t39 116t13 112v1032h262
v-1700h-225z" />
    <glyph glyph-name="bobaimaithai" unicode="&#xe1a;" horiz-adv-x="1749" 
d="M1528 541q0 -123 -32.5 -230t-108.5 -186t-201 -124.5t-309 -45.5q-129 0 -227.5 20.5t-171 58.5t-121 91t-78 118t-42 140.5t-12.5 157.5v1159h258v-1184q0 -94 26.5 -167.5t77 -124.5t123.5 -78t167 -27q81 0 152 27t123.5 78t83 124.5t30.5 167.5v1184h262v-1159z" />
    <glyph glyph-name="poplathai" unicode="&#xe1b;" horiz-adv-x="1782" 
d="M1561 541q0 -123 -35.5 -230t-115 -186t-207.5 -124.5t-314 -45.5q-132 0 -232.5 20.5t-174.5 58.5t-123.5 91t-79 118t-42 140.5t-12.5 157.5v1159h258v-1184q0 -94 29 -167.5t82.5 -124.5t129 -78t169.5 -27q81 0 154.5 27t129 78t88.5 124.5t33 167.5v1921h263v-1896z
" />
    <glyph glyph-name="phophungthai" unicode="&#xe1c;" horiz-adv-x="2007" 
d="M1790 418q0 -53 -7 -108t-24 -106.5t-46.5 -97t-75 -79t-109 -53t-148.5 -19.5q-41 0 -97.5 13t-112 44.5t-101 84t-65.5 132.5q-20 -80 -65 -132.5t-98 -84t-107.5 -44.5t-94.5 -13q-154 0 -250.5 61.5t-151 175.5t-74.5 276t-20 363q0 104 10.5 211t34.5 206.5t63 186
t96 151t134.5 101.5t177.5 37q163 0 242 -49l-29 -155q-37 24 -73 34t-70 7q-66 -5 -115 -36.5t-85 -83t-59.5 -120.5t-38 -149t-20 -169t-5.5 -180q0 -170 15 -301.5t46.5 -221t81.5 -135.5t119 -46q66 0 107.5 30.5t65 76.5t32 98.5t8.5 97.5v704h241v-704q0 -46 9.5 -100
t34.5 -100t66.5 -76.5t106.5 -30.5q45 0 76.5 13.5t52.5 34t33 46.5t18 51t7.5 46.5t1.5 33.5v1360h262v-1282z" />
    <glyph glyph-name="fofathai" unicode="&#xe1d;" horiz-adv-x="2007" 
d="M1790 418q0 -53 -7 -108t-24 -106.5t-46.5 -97t-75 -79t-109 -53t-148.5 -19.5q-41 0 -97.5 13t-112 44.5t-101 84t-65.5 132.5q-20 -80 -65 -132.5t-98 -84t-107.5 -44.5t-94.5 -13q-154 0 -250.5 61.5t-151 175.5t-74.5 276t-20 363q0 104 10.5 211t34.5 206.5t63 186
t96 151t134.5 101.5t177.5 37q163 0 242 -49l-29 -155q-37 24 -73 34t-70 7q-66 -5 -115 -36.5t-85 -83t-59.5 -120.5t-38 -149t-20 -169t-5.5 -180q0 -170 15 -301.5t46.5 -221t81.5 -135.5t119 -46q66 0 107.5 30.5t65 76.5t32 98.5t8.5 97.5v704h241v-704q0 -46 9.5 -100
t34.5 -100t66.5 -76.5t106.5 -30.5q45 0 76.5 13.5t52.5 34t33 46.5t18 51t7.5 46.5t1.5 33.5v2097h262v-2019z" />
    <glyph glyph-name="phophanthai" unicode="&#xe1e;" horiz-adv-x="2135" 
d="M1910 418q0 -105 -29.5 -190t-85 -146t-135 -94t-179.5 -33q-62 0 -126.5 15.5t-121.5 48.5t-99.5 86t-59.5 128q-22 -75 -67.5 -128t-102.5 -86t-118 -48.5t-113 -15.5q-111 0 -194.5 33t-140 94t-85 146t-28.5 190v1282h258v-1356q0 -42 15.5 -82t45 -72t72.5 -51.5
t98 -19.5q61 0 105.5 28t73.5 68.5t43.5 85t14.5 76.5v1323h241v-1327q0 -34 12 -78t39 -83t69.5 -66t102.5 -27q51 0 93.5 19t73.5 50t48.5 70.5t17.5 81.5v1360h262v-1282z" />
    <glyph glyph-name="fofanthai" unicode="&#xe1f;" horiz-adv-x="2135" 
d="M1910 418q0 -105 -29.5 -190t-85 -146t-135 -94t-179.5 -33q-62 0 -126.5 15.5t-121.5 48.5t-99.5 86t-59.5 128q-22 -75 -67.5 -128t-102.5 -86t-118 -48.5t-113 -15.5q-111 0 -194.5 33t-140 94t-85 146t-28.5 190v1282h258v-1356q0 -42 15.5 -82t45 -72t72.5 -51.5
t98 -19.5q60 0 105 28t74 68.5t43.5 85t14.5 76.5v1323h241v-1327q0 -34 12.5 -78t39 -83t69 -66t102.5 -27q51 0 93.5 19t73.5 50t48.5 70.5t17.5 81.5v2097h262v-2019z" />
    <glyph glyph-name="phosamphaothai" unicode="&#xe20;" horiz-adv-x="1815" 
d="M1331 0v1225q0 75 -23 138.5t-70 110t-119.5 73t-172.5 26.5q-94 0 -173.5 -28t-137.5 -76t-90.5 -112t-32.5 -136v-1221h-451v156h189v835q0 66 4.5 117.5t18 96t39.5 85.5t69 86q-9 3 -20.5 8.5t-20.5 8.5q-22 9 -46 12.5t-52 3.5v111q43 35 124 73.5t182.5 70.5
t213.5 52.5t217 20.5q121 0 231 -25t193.5 -79.5t132.5 -141t49 -209.5v-1282h-254z" />
    <glyph glyph-name="momathai" unicode="&#xe21;" horiz-adv-x="1749" 
d="M1528 483q0 -118 -36.5 -214t-104.5 -164t-165 -105t-218 -37q-65 0 -144 18.5t-155 59t-140.5 104t-101.5 154.5l-12 -299h-226v1700h262v-1032q0 -53 13 -112t39 -116t63.5 -109.5t87 -93t109.5 -66t131 -28.5q61 -5 110.5 10t87 45t64.5 72t44.5 91t25.5 102.5
t8 105.5v1131h258v-1217z" />
    <glyph glyph-name="yoyakthai" unicode="&#xe22;" horiz-adv-x="1741" 
d="M1520 537q0 -135 -38 -243t-118 -183.5t-204 -115.5t-296 -40q-146 0 -270.5 33.5t-215.5 100t-142.5 165t-51.5 229.5q0 80 23.5 153t71 131t118 96.5t164.5 49.5q-92 11 -162.5 47.5t-117 90t-68 121t-16.5 139.5q3 102 37.5 177t90 125t126 75.5t146 30t150.5 -12
t138 -51.5l-49 -156q-75 29 -139.5 29.5t-114 -25t-81.5 -74.5t-42 -118q-8 -71 17 -127.5t73.5 -96.5t115.5 -63.5t142 -28.5v-147q-63 0 -126 -27.5t-113 -76t-81.5 -114.5t-31.5 -143q0 -55 20 -120t68 -121t127.5 -93.5t197.5 -37.5q88 0 159.5 28.5t122.5 82t79 131
t28 175.5v1168h263v-1163z" />
    <glyph glyph-name="roruathai" unicode="&#xe23;" horiz-adv-x="1720" 
d="M1577 487q0 -97 -28.5 -174.5t-78 -136.5t-117.5 -101t-147 -68.5t-166.5 -39t-175.5 -12.5q-82 0 -163 12t-156 37t-142.5 64t-122.5 93t-94.5 124t-58.5 157l250 45q17 -87 61.5 -155.5t109 -116t146.5 -72t174 -24.5q81 0 159.5 20t139.5 59.5t98.5 98.5t37.5 137
q0 99 -63.5 165.5t-174.5 88.5l-373 70q-103 17 -193 51.5t-157 92t-106 141t-39 198.5q0 118 51.5 209.5t140.5 154.5t207 95.5t252 32.5q121 0 229 -26.5t193.5 -80t145 -134t83.5 -189.5l-229 -50q-17 72 -51 130.5t-86.5 100t-124.5 63.5t-164 22q-78 0 -146.5 -20
t-118.5 -56.5t-79 -88t-29 -114.5q0 -75 21 -123t57.5 -77.5t85.5 -44t106 -21.5l389 -66q117 -20 201.5 -66t139 -109.5t80.5 -139.5t26 -156z" />
    <glyph glyph-name="ruthai" unicode="&#xe24;" horiz-adv-x="1778" 
d="M1294 -532v1757q0 75 -22.5 138.5t-70 110t-120 73t-172.5 26.5q-94 0 -173.5 -28t-137.5 -76t-90.5 -112t-32.5 -136v-1065h197v-156h-459v991q0 66 4.5 117.5t18 96t39.5 85.5t69 86q-9 3 -20.5 8.5t-20.5 8.5q-22 9 -46 12.5t-52 3.5v111q28 23 74.5 48.5t105.5 49.5
t127 45.5t140.5 38t146.5 26t143 9.5q121 0 231 -25t193.5 -79.5t132.5 -141t49 -209.5v-1814h-254z" />
    <glyph glyph-name="lolingthai" unicode="&#xe25;" horiz-adv-x="1782" 
d="M1298 -4v885q-111 13 -218 13t-203.5 -15.5t-178.5 -48t-141.5 -84t-93 -124t-33.5 -167.5q0 -71 23.5 -126.5t64 -96t94.5 -65.5t115 -34.5t125.5 -4t126.5 27.5l37 -123q-90 -41 -189 -55t-195 -2.5t-183 47.5t-153 95.5t-105 142t-39 185.5q0 105 33 188t90.5 147.5
t135.5 111.5t167 78t185 47.5t190.5 21t182.5 -2t162 -21.5v258q0 92 -39 153t-100.5 97t-137 50.5t-149.5 14.5q-87 0 -159.5 -22.5t-129 -61.5t-95 -92.5t-58.5 -114.5l-254 37q40 117 117 195.5t176.5 126.5t214 68t229.5 20q166 0 288 -40.5t202 -109.5t119 -159.5
t39 -190.5v-1249h-263z" />
    <glyph glyph-name="luthai" unicode="&#xe26;" horiz-adv-x="1815" 
d="M1331 -532v1757q0 75 -23 138.5t-70 110t-119.5 73t-172.5 26.5q-94 0 -173.5 -28t-137.5 -76t-90.5 -112t-32.5 -136v-1221h-451v156h189v835q0 66 4.5 117.5t18 96t39.5 85.5t69 86q-9 3 -20.5 8.5t-20.5 8.5q-22 9 -46 12.5t-52 3.5v111q43 35 124 73.5t182.5 70.5
t213.5 52.5t217 20.5q121 0 231 -25t193.5 -79.5t132.5 -141t49 -209.5v-1814h-254z" />
    <glyph glyph-name="wowaenthai" unicode="&#xe27;" horiz-adv-x="1745" 
d="M1569 844q0 -112 -19 -221t-58 -208t-99 -183t-143 -145.5t-189.5 -96.5t-237.5 -35q-158 0 -285 46.5t-221 128t-153 193t-82 242.5l250 25q17 -88 49.5 -173t89.5 -152t142 -108.5t206 -41.5q92 0 163 35t123 93t87.5 133.5t57 156.5t31 161.5t9.5 149.5
q0 68 -9.5 148.5t-31 160.5t-57 154.5t-87.5 131.5t-123 91.5t-163 34.5q-85 0 -151 -19t-116.5 -52t-87 -78.5t-62 -97.5t-42.5 -109.5t-28 -114.5l-250 24q24 130 80.5 242.5t147.5 195.5t218.5 130t294.5 47q134 0 241.5 -35t190.5 -96.5t142.5 -146t97.5 -183t56 -208
t18 -220.5z" />
    <glyph glyph-name="sosalathai" unicode="&#xe28;" horiz-adv-x="1749" 
d="M1688 1630q-32 1 -68.5 -1.5t-72 -13t-67.5 -31.5t-55 -56q59 -74 87 -163t28 -185v-1180h-254v1200q0 97 -31.5 168.5t-87 118.5t-130 70.5t-160.5 23.5q-88 0 -165.5 -23.5t-135.5 -70.5t-91.5 -118.5t-33.5 -168.5v-401q27 60 64.5 105t80 77t88 52t90 31t85.5 13.5
t75 -0.5v-229q-62 8 -121.5 -6.5t-113 -44.5t-99 -72t-79 -88.5t-52 -93.5t-18.5 -88v-455h-254v1180q0 111 42 213t126.5 180t213 125t302.5 47q136 0 239 -29t187 -82q26 51 67 87.5t88.5 61t97.5 38t95 18.5z" />
    <glyph glyph-name="sorusithai" unicode="&#xe29;" horiz-adv-x="1757" 
d="M1528 852v-311q0 -123 -32.5 -230t-108.5 -186t-201 -124.5t-309 -45.5q-129 0 -227.5 20.5t-171 58.5t-121 91t-78 118t-42 140.5t-12.5 157.5v1159h258v-1184q0 -94 26.5 -167.5t77 -124.5t123.5 -78t167 -27q81 0 152 27t123.5 78t83 124.5t30.5 167.5v324l-189 -4
q-57 -2 -108.5 6.5t-95 24.5t-78.5 38.5t-58 48.5l140 160q29 -41 65 -65t76 -35.5t82 -14t84 -0.5l82 5v696h262v-684l184 4v-164z" />
    <glyph glyph-name="sosuathai" unicode="&#xe2a;" horiz-adv-x="1782" 
d="M1716 1642q-31 2 -67.5 -1t-73 -13.5t-69.5 -29.5t-56 -50q111 -129 111 -303v-1249h-263v885q-111 13 -218 13t-203.5 -15.5t-178.5 -48t-141.5 -84t-93 -124t-33.5 -167.5q0 -71 23.5 -126.5t64 -96t94.5 -65.5t115 -34.5t125.5 -4t126.5 27.5l33 -111
q-78 -56 -172 -77.5t-189.5 -11.5t-185.5 48.5t-159.5 102t-111.5 149.5t-42 190q0 105 33 188t90.5 147.5t135.5 111.5t167 78t185 47.5t190.5 21t182.5 -2t162 -21.5v258q0 92 -39 153t-100.5 97t-137 50.5t-149.5 14.5q-87 0 -159.5 -22.5t-129 -61.5t-95 -92.5
t-58.5 -114.5l-254 37q40 117 117 195.5t176.5 126.5t214 68t229.5 20q134 0 235.5 -26t178.5 -72q26 48 67 86.5t89.5 65.5t100 41.5t99.5 14.5z" />
    <glyph glyph-name="hohipthai" unicode="&#xe2b;" horiz-adv-x="1749" 
d="M1602 1700q-8 -42 -33.5 -97.5t-72.5 -114t-117 -115t-167 -99.5q75 -17 134 -52t99.5 -84t61.5 -109.5t21 -127.5v-901h-262v840q0 54 -20 106t-59.5 93t-99 66t-137.5 25q-63 0 -121.5 -27.5t-110.5 -73t-95 -104t-74.5 -120.5t-48.5 -122.5t-17 -109.5v-573h-258v1700
h258v-725q51 89 111.5 148.5t124 100t126 68t118.5 51.5q60 26 116.5 59.5t102 76.5t74.5 97.5t34 123.5h312z" />
    <glyph glyph-name="lochulathai" unicode="&#xe2c;" horiz-adv-x="2007" 
d="M1790 418q0 -103 -23.5 -188.5t-71.5 -146.5t-121 -94.5t-173 -33.5q-48 0 -109.5 15.5t-120 48.5t-104.5 86t-63 128q-22 -75 -61.5 -128t-88.5 -86t-104 -48.5t-107 -15.5q-111 0 -190 33t-129.5 94t-74.5 146t-24 190v1282h258v-1356q0 -42 10.5 -81t34.5 -69
t62.5 -48.5t93.5 -18.5t92.5 27t61 66t33.5 82t10 75v950h241v-954q0 -32 12 -74.5t38 -80.5t66 -64.5t97 -26.5q51 0 87.5 15.5t60 43.5t34.5 67t11 87v877q0 70 -22 120.5t-53 83.5t-65 51.5t-57 26.5v29q26 4 60 22t64.5 49.5t51.5 77t21 105.5v86h262v-90
q0 -54 -22.5 -98.5t-57.5 -79t-79 -59t-87 -38.5q43 -11 87 -37.5t79 -66.5t57.5 -91.5t22.5 -111.5v-778z" />
    <glyph glyph-name="oangthai" unicode="&#xe2d;" horiz-adv-x="1843" 
d="M1708 827q0 -209 -55 -372.5t-158.5 -276.5t-251.5 -172t-334 -59q-138 0 -251 37t-201.5 103.5t-152 159t-103 204.5t-55 239.5t-7.5 263.5h779v-180h-496q-8 -158 28.5 -281.5t104 -208.5t159.5 -129t195 -44q111 0 206.5 40.5t166.5 126t111.5 219.5t40.5 322
q0 190 -40 332.5t-110.5 237t-166.5 141.5t-208 47q-87 0 -165.5 -26t-142.5 -75.5t-110 -121t-69 -162.5l-262 29q29 117 102.5 212t175 162.5t223.5 104.5t248 37q95 0 191.5 -21.5t185 -67.5t165.5 -118.5t134.5 -173.5t90 -232.5t32.5 -296.5z" />
    <glyph glyph-name="honokhukthai" unicode="&#xe2e;" horiz-adv-x="1843" 
d="M1745 1630q-29 1 -66.5 -3t-77 -16t-77 -33.5t-66.5 -53.5q55 -54 101 -123.5t79 -156t51.5 -190.5t18.5 -227q0 -209 -55 -372.5t-158.5 -276.5t-251.5 -172t-334 -59q-138 0 -251 37t-201.5 103.5t-152 159t-103 204.5t-55 239.5t-7.5 263.5h779v-180h-496
q-8 -158 28.5 -281.5t104 -208.5t159.5 -129t195 -44q111 0 206.5 40.5t166.5 126t111.5 219.5t40.5 322q0 190 -40 332.5t-110.5 237t-166.5 141.5t-208 47q-87 0 -165.5 -26t-142.5 -75.5t-110 -121t-69 -162.5l-262 29q29 117 102.5 212t175 162.5t223.5 104.5t248 37
q109 0 217.5 -28t204.5 -87q32 49 80.5 87.5t102 65.5t108 43t98.5 21z" />
    <glyph glyph-name="paiyannoithai" unicode="&#xe2f;" horiz-adv-x="1741" 
d="M1257 0v999q-48 -55 -101.5 -102.5t-117.5 -82t-140.5 -54t-168.5 -19.5q-101 0 -199 35t-177 98.5t-132 153.5t-65 201q-5 57 7 117t40 116.5t70.5 106.5t98.5 87.5t124 59t147 21.5q102 0 191.5 -26.5t148.5 -63.5l-57 -144q-58 25 -117.5 32.5t-116 -1t-106.5 -32.5
t-87.5 -62.5t-59 -90.5t-21.5 -116q0 -68 34.5 -123t88.5 -94t119 -60.5t126 -21.5q105 0 191.5 35t148.5 93.5t96.5 134.5t34.5 159v344h263v-1700h-263z" />
    <glyph glyph-name="saraathai" unicode="&#xe30;" horiz-adv-x="918" 
d="M401 1155q-51 -2 -100.5 15.5t-93 46t-77.5 64t-52 71.5l209 143q14 -24 33.5 -51.5t48 -50.5t66.5 -37.5t89 -12.5l271 13v-189zM401 197q-51 -2 -100.5 15.5t-93 46t-77.5 64t-52 70.5l209 144q14 -25 33.5 -52.5t48 -50t66.5 -37t89 -12.5l271 12v-188z" />
    <glyph glyph-name="maihanakatthai" unicode="&#xe31;" 
d="M-717 2089q-51 0 -111.5 10.5t-117.5 32.5t-104.5 57t-71.5 84l209 144q18 -36 52 -63.5t80.5 -46t104 -28.5t123.5 -10l553 4v-172z" />
    <glyph glyph-name="saraaathai" unicode="&#xe32;" horiz-adv-x="1167" 
d="M684 0v1352q0 63 -16 106.5t-48 71t-79.5 39.5t-110.5 12q-48 0 -92.5 -12.5t-82.5 -30.5t-68 -37t-48 -31l-98 99q38 31 88 62t110 56.5t129 41.5t144 16q109 0 190.5 -29t135.5 -75.5t81 -106.5t27 -121v-1413h-262z" />
    <glyph glyph-name="saraamthai" unicode="&#xe33;" horiz-adv-x="1167" 
d="M-16 2273q0 -66 -27.5 -121t-74 -94.5t-108 -61.5t-130.5 -22q-72 0 -135 22t-109.5 61.5t-73 94.5t-26.5 121t29 119.5t77 92t110 59t128 20.5t127.5 -20.5t108.5 -59t75.5 -92t28.5 -119.5zM684 0v1352q0 63 -16 106.5t-48 71t-79.5 39.5t-110.5 12q-48 0 -92.5 -12.5
t-82.5 -30.5t-68 -37t-48 -31l-98 99q38 31 88 62t110 56.5t129 41.5t144 16q109 0 190.5 -29t135.5 -75.5t81 -106.5t27 -121v-1413h-262zM-193 2273q0 62 -44.5 101t-118.5 39q-36 0 -66.5 -10.5t-53 -29t-35.5 -44t-13 -56.5q0 -32 13 -58.5t35.5 -45.5t53 -29t66.5 -10
q35 0 65 10t51.5 29t34 45.5t12.5 58.5z" />
    <glyph glyph-name="saraithai" unicode="&#xe34;" 
d="M-1540 2093l78 180h1237v-180h-1315z" />
    <glyph glyph-name="saraiithai" unicode="&#xe35;" 
d="M-1536 2093l78 180h975v242h262v-422h-1315z" />
    <glyph glyph-name="sarauethai" unicode="&#xe36;" 
d="M-127 2310q0 -217 -287 -217h-1122l78 180h713q-14 66 5.5 120.5t64.5 93t111 60t146 21.5q69 0 123.5 -20t91.5 -55t56.5 -82t19.5 -101zM-299 2314q0 115 -139 115q-29 0 -55.5 -8t-46 -23t-31 -36.5t-11.5 -47.5q0 -29 11.5 -50t31 -34.5t46 -19.5t55.5 -6
q62 0 100.5 25.5t38.5 84.5z" />
    <glyph glyph-name="saraueethai" unicode="&#xe37;" 
d="M-1532 2093l78 180h766v262h90q34 0 46 -18t15 -43l13 -131q1 -17 5 -31t12.5 -24.5t23 -16.5t37.5 -6q20 0 32.5 6t20 16.5t11 24.5t5.5 31l12 131q4 25 16 43t46 18h82v-442h-1311z" />
    <glyph glyph-name="sarauthai" unicode="&#xe38;" 
d="M-446 -721v246q0 86 -82 86h-111l53 168h217q72 0 110 -47.5t38 -124.5v-328h-225z" />
    <glyph glyph-name="sarauuthai" unicode="&#xe39;" 
d="M-221 -483q0 -81 -24 -134.5t-73.5 -84.5t-125.5 -43.5t-179 -12.5q-97 0 -164.5 18t-110 47t-62 65t-19.5 71v86q0 94 -82 94h-106l69 160h197q35 0 60 -12.5t40.5 -35t23 -54.5t7.5 -70v-115q0 -46 38.5 -76t113.5 -30q151 0 151 131v262h246v-266z" />
    <glyph glyph-name="phinthuthai" unicode="&#xe3a;" 
d="M-197 -381q0 -71 -42 -113.5t-113 -42.5t-113.5 42.5t-42.5 113.5t42.5 113.5t113.5 42.5t113 -42.5t42 -113.5z" />
    <glyph glyph-name="PUCR2005" unicode="&#xe3e;" 
 />
    <glyph glyph-name="bahtthai" unicode="&#xe3f;" horiz-adv-x="2216" 
d="M1929 594q0 -105 -29 -188.5t-80.5 -148.5t-120.5 -112t-149.5 -78.5t-167.5 -47.5t-174 -19h-192v-291h-164v291h-627v2363h627v222h164v-222h94q163 -8 297 -42.5t230 -106.5t149 -185.5t53 -279.5q0 -129 -40.5 -226.5t-113 -165.5t-174.5 -107.5t-225 -53.5
q82 -8 161.5 -25.5t151 -48t132 -75.5t104.5 -109.5t69 -149.5t25 -194zM1536 1749q0 111 -36 191t-103 130t-163.5 71t-217.5 13v-856q140 -5 238.5 21t161 82t91.5 143t29 205zM852 2154h-344v-856h344v856zM1614 635q0 129 -43 216.5t-121 140t-188.5 73.5t-245.5 16
v-880q136 -5 246.5 16.5t188.5 74t120.5 137t42.5 206.5zM852 1085h-344v-884h344v884z" />
    <glyph glyph-name="saraethai" unicode="&#xe40;" horiz-adv-x="745" 
d="M242 0v1700h258v-1700h-258z" />
    <glyph glyph-name="saraaethai" unicode="&#xe41;" horiz-adv-x="1384" 
d="M881 0v1700h258v-1700h-258zM242 0v1700h258v-1700h-258z" />
    <glyph glyph-name="saraothai" unicode="&#xe42;" horiz-adv-x="745" 
d="M532 2249q-37 0 -68.5 -7t-49.5 -25.5t-18 -52t26 -87.5q17 -31 32 -57t26 -55t17.5 -63.5t6.5 -82.5v-1819h-258v1815q0 43 -4 74.5t-11.5 56t-17 44.5t-20.5 40.5t-23 43t-23 52.5q-20 60 -8 113t48.5 92.5t94 62.5t128.5 23h421l46 -168h-345z" />
    <glyph glyph-name="saraaimaimuanthai" unicode="&#xe43;" horiz-adv-x="745" 
d="M602 2163q0 -31 -7.5 -54t-18 -44t-23.5 -43t-23.5 -51t-18 -68t-7.5 -93v-1810h-258v1835q0 35 10 68t23 62t26 54t19 45q17 55 4.5 94t-47 64t-86.5 36t-113 11q-35 0 -70 -9.5t-67 -25t-61 -36.5t-52 -44l-86 95q42 37 88 69.5t101.5 57t122 39t147.5 14.5t153.5 -17
t126.5 -50t85.5 -83t31.5 -116z" />
    <glyph glyph-name="saraaimaimalaithai" unicode="&#xe44;" horiz-adv-x="745" 
d="M602 2126q-17 -45 -34.5 -75t-31.5 -61t-23 -71t-9 -104v-1815h-258v1819q0 48 6.5 82.5t17.5 63.5t26 55t32 57q26 54 25.5 87.5t-18.5 52t-49.5 25.5t-68.5 7h-344l45 168h422q70 0 127.5 -23t94 -62.5t48.5 -92.5t-8 -113z" />
    <glyph glyph-name="lakkhangyaothai" unicode="&#xe45;" horiz-adv-x="1167" 
d="M684 -528v1880q0 63 -16 106.5t-48 71t-79.5 39.5t-110.5 12q-48 0 -94.5 -12.5t-88.5 -32t-77 -43.5t-59 -47l-70 123q38 31 88 62t110 56.5t129 41.5t144 16q109 0 190.5 -29t135.5 -75.5t81 -106.5t27 -121v-1941h-262z" />
    <glyph glyph-name="maiyamokthai" unicode="&#xe46;" horiz-adv-x="1942" 
d="M1475 -528v1757q0 61 -17 105.5t-42 72.5t-53.5 41.5t-51.5 13.5l-230 -159l-225 163q-32 3 -63 -7.5t-56.5 -32t-43.5 -53t-23.5 -69.5t3 -82.5t36.5 -91.5l-168 -110q-47 63 -65.5 135.5t-12 144t37 138t80 118.5t117.5 85t150 38l233 -180l242 180q80 -8 153.5 -45
t129.5 -96.5t89.5 -137.5t33.5 -167v-1761h-254z" />
    <glyph glyph-name="maitaikhuthai" unicode="&#xe47;" 
d="M-217 2253q1 -45 -15 -86.5t-46.5 -73.5t-74.5 -51t-98 -19q-18 0 -41.5 2t-48 7t-50 13.5t-48.5 22.5l-176 107l-176 -107q-22 -12 -55.5 -26t-67.5 -14q-69 0 -125 27.5t-95.5 74t-61 107t-21.5 126.5q0 63 20.5 122t58.5 105t92 73.5t120 27.5h893v-139h-758
q-37 0 -70.5 -11.5t-59 -35t-40.5 -59t-15 -83.5q0 -52 10.5 -85t26 -52.5t34.5 -29t36 -13.5l258 144l176 -99q34 -21 69.5 -29.5t69.5 1.5q38 9 68 36.5t39 85.5z" />
    <glyph glyph-name="maiekthai" unicode="&#xe48;" 
d="M-471 2740v451h250v-451h-250z" />
    <glyph glyph-name="maithothai" unicode="&#xe49;" 
d="M111 2855q-85 -56 -185.5 -93.5t-212.5 -58.5t-234 -24.5t-249 8.5v37q34 26 51.5 65.5t13.5 79t-33 72.5t-89 45l57 164q87 21 157.5 2.5t110 -66t41.5 -117.5t-47 -151q60 0 140.5 14.5t164 45t162 78.5t135.5 116z" />
    <glyph glyph-name="maitrithai" unicode="&#xe4a;" 
d="M193 3023q-11 -92 -52 -159.5t-104.5 -108t-145.5 -53t-174 4.5q28 31 41 64t13 68q0 18 -7 36.5t-20.5 33.5t-33.5 24.5t-46 11.5q-46 0 -76.5 -19t-46.5 -47q-8 14 -19 27.5t-26.5 23.5t-35 14.5t-42.5 0.5q-29 -5 -46 -17.5t-26 -28t-11.5 -32t-2.5 -28.5
q0 -41 11 -71.5t26 -51.5h-135q-8 6 -21.5 19.5t-27 37t-23.5 57.5t-10 82q0 42 14 76.5t39.5 61t61 42.5t78.5 21q58 3 92 -10t59 -35q13 -12 24.5 -27t20.5 -30q6 15 16 27.5t25 25.5q22 21 61.5 36.5t98.5 12.5q45 0 84 -24t62 -65t26 -94.5t-25 -111.5q45 17 74 36.5
t46.5 49t24.5 72.5t7 108z" />
    <glyph glyph-name="maichattawathai" unicode="&#xe4b;" 
d="M-229 2896v-205h-234v205h-221v151h221v209h234v-209h225v-151h-225z" />
    <glyph glyph-name="thanthakhatthai" unicode="&#xe4c;" 
d="M16 2761q-84 0 -135 -28t-77 -71.5t-32 -97.5t-1 -106h-246q0 56 5 108.5t22 98.5t49.5 84t87 65t135 42t192.5 15v-110z" />
    <glyph glyph-name="nikhahitthai" unicode="&#xe4d;" 
d="M-16 2273q0 -66 -27.5 -121t-74 -94.5t-108 -61.5t-130.5 -22q-72 0 -135 22t-109.5 61.5t-73 94.5t-26.5 121t29 119.5t77 92t110 59t128 20.5t127.5 -20.5t108.5 -59t75.5 -92t28.5 -119.5zM-193 2273q0 62 -44.5 101t-118.5 39q-36 0 -66.5 -10.5t-53 -29t-35.5 -44
t-13 -56.5q0 -32 13 -58.5t35.5 -45.5t53 -29t66.5 -10q35 0 65 10t51.5 29t34 45.5t12.5 58.5z" />
    <glyph glyph-name="yamakkanthai" unicode="&#xe4e;" 
d="M16 2679q-66 0 -107 -24.5t-63.5 -67.5t-30.5 -101.5t-8 -126.5q-132 0 -201 -75t-69 -207h-209q0 103 26 181t69 134.5t97 92.5t111 55q8 38 23.5 78.5t38.5 79t54 73t71 60.5t89.5 41.5t108.5 15.5v-209z" />
    <glyph glyph-name="fongmanthai" unicode="&#xe4f;" horiz-adv-x="2048" 
d="M1847 852q0 -114 -29.5 -219t-83 -196.5t-128.5 -166.5t-166.5 -128.5t-196.5 -83t-219 -29.5q-112 0 -216 29.5t-195 83t-166 128.5t-129 166.5t-83.5 196.5t-29.5 219q0 111 29.5 215.5t83.5 195.5t129 166t166 129t195 83.5t216 29.5q114 0 219 -29.5t196.5 -83.5
t166.5 -129t128.5 -166t83 -195.5t29.5 -215.5zM1692 852q0 92 -24 177.5t-67.5 159.5t-104.5 135t-135 104.5t-159.5 67.5t-177.5 24q-93 0 -178.5 -24t-159.5 -67.5t-134 -104.5t-102.5 -135t-66 -159.5t-23.5 -177.5t23.5 -177.5t66 -159.5t102.5 -135t134 -104.5
t159.5 -67.5t178.5 -24q92 0 177.5 24t159.5 67.5t135 104.5t104.5 135t67.5 159.5t24 177.5zM1491 852q0 -97 -36.5 -182t-100 -148.5t-148.5 -100t-182 -36.5t-182 36.5t-148.5 100t-100 148.5t-36.5 182t36.5 182t100 148.5t148.5 100t182 36.5t182 -36.5t148.5 -100
t100 -148.5t36.5 -182zM1364 852q0 72 -26 134t-71.5 108t-108 72t-134.5 26t-134.5 -26t-108 -72t-71.5 -108t-26 -134t26 -134.5t71.5 -108t108 -71.5t134.5 -26t134.5 26t108 71.5t71.5 108t26 134.5z" />
    <glyph glyph-name="zerothai" unicode="&#xe50;" horiz-adv-x="2376" 
d="M2216 844q0 -133 -34 -249.5t-98.5 -213t-156.5 -172t-208 -127.5t-254 -79.5t-294 -27.5q-147 0 -279.5 27t-245.5 79t-203.5 128t-154 174t-98 218t-34.5 259q0 203 73.5 367t209 280t328.5 179t433 63q143 0 274.5 -27.5t244 -80.5t204.5 -131t157 -178.5t100.5 -223
t35.5 -264.5zM1913 831q0 180 -52 319.5t-147 235.5t-228 145.5t-294 49.5q-181 0 -317.5 -55.5t-228 -152.5t-137.5 -229t-46 -284q0 -163 53.5 -294.5t149 -224.5t226 -143.5t284.5 -50.5q166 0 301.5 47.5t232.5 136.5t150 215.5t53 284.5z" />
    <glyph glyph-name="onethai" unicode="&#xe51;" horiz-adv-x="2376" 
d="M2175 831q0 -118 -33.5 -227t-97 -204t-155 -173.5t-208.5 -134.5t-257.5 -86.5t-301.5 -30.5q-86 0 -178.5 8t-183.5 27t-176.5 51.5t-157.5 81.5l61 197q77 -69 161 -109t167.5 -60.5t162 -26t144.5 -5.5q116 0 216 26t183 72.5t147.5 111t109 141.5t67.5 163.5
t23 177.5q0 186 -51 326t-145.5 233t-228.5 140t-300 47q-141 0 -257.5 -38t-199.5 -104.5t-128.5 -156.5t-45.5 -193q0 -92 25 -159t67.5 -111t99 -65t119.5 -21q66 0 124.5 18.5t96 55.5t48 93.5t-18.5 131.5h139q23 -44 27 -97.5t-11 -108t-49.5 -106t-88 -91.5
t-127.5 -64t-168 -24q-65 0 -134 10.5t-135 35t-125 65t-103.5 101t-70.5 142.5t-26 190q0 148 70.5 270.5t196.5 211t299.5 137.5t379.5 49q244 0 435 -66t323 -187t201 -290t69 -375z" />
    <glyph glyph-name="twothai" unicode="&#xe52;" horiz-adv-x="2429" 
d="M2253 872q0 -177 -25 -310.5t-71.5 -230.5t-111 -160.5t-143 -101.5t-169.5 -53.5t-189 -15.5h-610q-203 0 -348.5 66t-238 192t-134.5 308.5t-37 416.5q1 192 -6 330t-24.5 230.5t-46.5 144t-70 69.5l102 295q97 -38 161.5 -123t102 -215t51 -304t9.5 -390
q-6 -217 25.5 -376.5t95.5 -264.5t158 -156t212 -51h590q221 0 329.5 173.5t108.5 514.5q0 158 -8 285.5t-32 218.5t-68.5 141.5t-116.5 55.5q-54 0 -103 -44.5t-87.5 -119t-63 -170.5t-29.5 -199h-155q-5 108 -29.5 207.5t-65.5 174.5t-97 116.5t-124 34.5
q-35 -5 -66.5 -35.5t-54.5 -84t-36 -128t-11 -166.5q0 -115 17.5 -215t51.5 -174.5t83.5 -117t114.5 -42.5q23 0 48.5 10t49.5 27t43.5 40.5t30.5 49.5l106 -98q-11 -36 -36 -71.5t-63 -64.5t-88.5 -47t-111.5 -18q-108 0 -195 61.5t-148.5 164t-94.5 235.5t-33 276
q0 129 27 235.5t78 182.5t125 118t167 42q66 0 117.5 -15.5t92 -41.5t70 -60.5t50 -73t34 -79t21.5 -78.5h9q8 38 22 78.5t36.5 79t53.5 73t73.5 60.5t96.5 41.5t123 15.5q105 0 189 -44t143 -146t91 -268.5t32 -410.5z" />
    <glyph glyph-name="threethai" unicode="&#xe53;" horiz-adv-x="2376" 
d="M2208 868q0 -173 -39.5 -317.5t-103 -261t-143.5 -205.5t-161 -150l-172 95q69 54 130.5 125.5t107 170.5t72 229.5t26.5 301.5q0 209 -25.5 346t-72 217.5t-111.5 113t-143 32.5q-46 0 -85 -23.5t-71.5 -63t-58.5 -93t-44.5 -113.5t-30.5 -124t-17 -124h-193
q-3 60 -12 124t-25.5 124t-41 113.5t-59 93t-79.5 63t-102 23.5q-53 0 -106.5 -31.5t-97.5 -106t-71.5 -198t-27.5 -307.5q0 -160 27 -303.5t75.5 -252t116.5 -172t149 -63.5q25 0 48 6t44 20.5t40 39t36 61.5l86 -94q-11 -39 -31 -74.5t-53.5 -62.5t-82 -43.5t-115.5 -16.5
q-82 0 -160 31t-147.5 89.5t-127 142.5t-99.5 190t-65.5 231t-23.5 267q0 147 23 265.5t63.5 210t95 157t117 108t130.5 62.5t136 20q98 0 174.5 -34.5t131 -88.5t87.5 -119.5t45 -126.5h9q5 41 20.5 84.5t41 84.5t62 77t84 63.5t106 43.5t128.5 16q61 0 128.5 -14
t132.5 -50.5t124 -99t103.5 -159.5t71 -232.5t26.5 -317.5z" />
    <glyph glyph-name="fourthai" unicode="&#xe54;" horiz-adv-x="2376" 
d="M2306 1880q-39 -80 -103.5 -134.5t-146.5 -90t-177 -54.5t-195.5 -28t-202 -10.5t-195.5 -1.5q-191 0 -336 -43.5t-243.5 -133t-148.5 -225t-50 -319.5q0 -146 39 -267t113 -211t181 -147.5t244 -75.5q43 -6 94.5 -8t106 -1.5t111 2t110.5 3.5v12q-104 20 -188.5 66.5
t-144.5 113t-92.5 151t-32.5 181.5q0 99 37 176t96 130t132.5 80.5t147.5 27.5q66 0 116 -11t88.5 -34.5t67.5 -59.5t52 -87l-107 -99q-14 39 -33 63.5t-42 38.5t-49.5 19.5t-55.5 5.5q-41 0 -80 -15.5t-69.5 -47.5t-49 -80.5t-18.5 -114.5q0 -84 41.5 -167.5t118.5 -149
t187 -104t247 -33.5h82q34 0 73.5 2.5t73.5 5.5l54 -197q-108 0 -193.5 -1t-154.5 -2.5t-126 -4t-109.5 -4.5t-104 -4.5t-109.5 -4t-126.5 -2.5t-154.5 -1q-99 0 -202.5 21.5t-200 66.5t-182 114t-149.5 164.5t-101 217.5t-37 272q0 209 64.5 374.5t192 281t315.5 176.5
t436 61q131 0 239 3.5t197 15t161.5 33.5t131.5 60.5t107 95t89 136.5z" />
    <glyph glyph-name="fivethai" unicode="&#xe55;" horiz-adv-x="2376" 
d="M2310 1872q-52 -83 -127.5 -141t-165 -96.5t-187.5 -61t-195.5 -33.5t-190 -13.5t-170.5 -2.5q-770 0 -770 -709q0 -140 39.5 -257.5t114 -206t181.5 -145.5t242 -75q43 -6 95.5 -8t108 -1.5t111.5 2t107 3.5l4 16q-104 19 -189.5 65t-146.5 113t-94 152t-33 182
q0 99 37 176t96.5 130t133 80.5t147.5 27.5q66 0 116 -11t88.5 -34.5t67.5 -59.5t52 -87l-99 -95q-14 36 -33.5 60t-43.5 39t-52 21.5t-59 6.5q-42 0 -80.5 -17t-68 -50t-47 -83t-17.5 -116q0 -55 18.5 -111t54 -107.5t87.5 -96t118 -77t145.5 -49.5t170.5 -14h82
q34 0 73.5 3t73.5 6l54 -193q-108 0 -193.5 -1t-154.5 -2.5t-126 -4t-109.5 -4.5t-104 -4.5t-109.5 -4t-126.5 -2.5t-154.5 -1q-101 0 -205 22.5t-201 68.5t-182 115t-148 162.5t-99.5 211t-36.5 259.5q0 138 28.5 250.5t78 201.5t117 157t146.5 116.5t165.5 79.5t173.5 47
q-25 23 -39.5 44.5t-22 42.5t-10 43t-2.5 46q0 54 28 101.5t76.5 83.5t113 56.5t138.5 20.5q72 0 133.5 -20.5t106.5 -56.5t70.5 -83.5t25.5 -101.5v-26t-2 -25t-7 -28t-16 -35q135 12 235 36.5t174.5 66t127.5 101t94 140.5zM1389 1806q0 78 -46.5 123t-142.5 45t-146 -45
t-50 -123q0 -65 52 -104t148 -39q87 0 136 39t49 104z" />
    <glyph glyph-name="sixthai" unicode="&#xe56;" horiz-adv-x="2376" 
d="M2191 877q0 -117 -28.5 -229t-84.5 -212.5t-139.5 -185t-193 -145.5t-245 -95.5t-296.5 -34.5q-148 0 -268.5 24.5t-215.5 67t-165 99.5t-116 122.5t-68.5 136.5t-22.5 140q0 91 33 171.5t94.5 141t150.5 95.5t201 35q63 0 117.5 -13t96.5 -39.5t70.5 -66.5t39.5 -94
l-94 -90q-28 68 -71.5 101.5t-108.5 33.5q-62 0 -110.5 -23t-82.5 -61.5t-52 -90t-18 -108.5q0 -74 34 -149.5t105 -137t181 -100.5t262 -39q147 0 278.5 51t229.5 148.5t155.5 238t57.5 320.5q0 89 -21.5 175t-63 163.5t-102.5 143t-140.5 113t-176 74.5t-209.5 27
q-117 0 -222 -26.5t-188 -73.5t-139.5 -110.5t-76.5 -137.5h-218q-3 46 -15.5 99t-33.5 108t-49.5 108.5t-65 100t-79.5 83t-92 58.5l147 234q60 -51 110 -112.5t87 -129t60.5 -139.5t29.5 -144l33 -8q12 29 62.5 72.5t140 84t218 69t295.5 28.5q131 0 255 -25.5t233 -76
t200 -124.5t156.5 -170.5t102 -216t36.5 -259.5z" />
    <glyph glyph-name="seventhai" unicode="&#xe57;" horiz-adv-x="2376" 
d="M2474 2003q-72 -81 -128.5 -198.5t-95.5 -262t-59 -313t-20 -352.5q0 -174 -37 -318.5t-98.5 -261t-141 -205t-165.5 -149.5l-173 94q71 54 131 126t104 171t68.5 229.5t24.5 300.5q0 197 -28.5 332.5t-76 219t-110 120.5t-129.5 37q-45 0 -84 -23.5t-72 -63t-59.5 -93
t-46 -113.5t-32 -124t-17.5 -124h-193q-3 60 -12 124t-25.5 124t-41 113.5t-59 93t-79.5 63t-102 23.5q-52 0 -106 -31.5t-97.5 -106t-71.5 -198t-28 -307.5q0 -107 12 -207.5t35 -189t55.5 -162.5t73.5 -127.5t89.5 -83t102.5 -29.5q50 0 95 30.5t73 104.5l86 -94
q-11 -38 -30 -73.5t-52 -63t-81 -44t-115 -16.5q-83 0 -161.5 31.5t-148.5 90.5t-128 143t-100 189t-65.5 229.5t-23.5 263.5q0 148 23 267.5t63.5 211t95 157.5t117 108.5t131 62.5t135.5 20q98 0 174.5 -34.5t131 -88.5t88 -119.5t45.5 -126.5h8q5 41 20.5 84.5t41 84.5
t61.5 77t82.5 63.5t103.5 43.5t125 16q108 0 187.5 -33.5t133.5 -89.5t83.5 -129.5t37.5 -153.5l25 5q-3 222 36.5 396.5t135.5 307.5z" />
    <glyph glyph-name="eightthai" unicode="&#xe58;" horiz-adv-x="2376" 
d="M2281 1884q-29 -75 -102 -139t-185 -110t-260.5 -71.5t-328.5 -23.5h-184q-36 0 -72 0.5t-67 1.5t-53 1.5t-30 0.5q-117 0 -216.5 -44.5t-172 -131.5t-114 -215.5t-41.5 -296.5q0 -147 27 -276.5t77 -225.5t120.5 -151.5t156.5 -55.5q72 0 130 32.5t100 91t67.5 140
t33.5 179.5h201q8 -86 36.5 -166t76.5 -141.5t113.5 -98.5t146.5 -37q60 0 112.5 20.5t91 59t61 92t22.5 119.5q0 67 -20.5 120.5t-58 89t-89.5 52.5t-115 13v123q106 29 198.5 9.5t161.5 -74t108.5 -139t39.5 -186.5q0 -106 -35.5 -192.5t-102 -148.5t-161.5 -96t-213 -34
q-108 0 -189 31t-138 81.5t-90.5 114.5t-45.5 130h-8q-12 -66 -43 -130t-86.5 -114.5t-138 -81.5t-199.5 -31q-66 0 -139.5 19.5t-146 62.5t-138.5 111t-116.5 164t-80.5 222t-30 286q0 176 35.5 310.5t97 234t144 166t175.5 107t192.5 58t194.5 17.5q11 0 36.5 -0.5
t60.5 -1.5t76.5 -1.5t84.5 -0.5q53 -4 108 -4.5t113 -0.5q121 -2 224 23t184.5 71.5t142 111.5t97.5 143z" />
    <glyph glyph-name="ninethai" unicode="&#xe59;" horiz-adv-x="2376" 
d="M2372 1876q-64 -96 -120 -144t-107 -64.5t-97 -9.5t-89.5 20t-84 23.5t-80.5 2.5q-59 -12 -98 -48.5t-60 -82t-23 -93.5t13 -83l672 -1286l-230 -136l-692 1295q-29 55 -63.5 106.5t-84 91.5t-117.5 64t-165 24q-81 0 -152.5 -28t-131.5 -77t-107.5 -115.5t-80.5 -144
t-50.5 -162t-17.5 -169.5q0 -84 19.5 -166t54.5 -155.5t85 -136t111.5 -108t132.5 -71.5t149 -26q57 0 109.5 3t105 17t106.5 43.5t114 83.5l151 -127q-57 -55 -122.5 -100t-139 -76.5t-153.5 -48.5t-166 -17q-126 0 -238.5 31t-207.5 88.5t-171.5 137.5t-129.5 178.5
t-81.5 212t-28.5 237.5q0 186 60 348t170 282.5t266 189.5t348 69q54 0 115.5 -10.5t123.5 -34.5t121.5 -62.5t110.5 -93.5q0 54 20.5 111t55 107t80 88t94.5 55q52 19 105 18t103.5 -8t96 -11.5t82.5 8.5t64 51.5t41 117.5z" />
    <glyph glyph-name="khomutthai" unicode="&#xe5b;" horiz-adv-x="3965" 
d="M3801 651h-700q-5 -12 -21.5 -41.5t-39 -67.5t-48.5 -80t-49.5 -78.5t-43 -64t-28.5 -36.5q-8 20 -29 62.5t-48.5 94.5t-59.5 108.5t-61.5 105.5t-54.5 85t-38 47q-8 -22 -33 -70.5t-59.5 -111t-74.5 -131t-77.5 -129t-68 -106.5t-47.5 -62q-14 31 -41 82t-61 111.5
t-71 124t-71.5 120t-63 99.5t-44.5 61q-13 -99 -38 -195t-67 -182t-103.5 -159t-148 -125.5t-201 -82.5t-261.5 -30q-214 0 -384.5 55.5t-290 157t-183.5 245t-64 320.5q0 111 27.5 211.5t79 187t125 156.5t165 119.5t199 76.5t227.5 27q67 0 132 -14.5t120.5 -42t99.5 -69
t70 -95.5l-139 -139q0 51 -24 86.5t-63.5 58t-90.5 33t-105 10.5q-70 0 -137 -20t-127 -57.5t-110.5 -91.5t-87.5 -121.5t-57.5 -147t-20.5 -168.5q0 -152 48.5 -266t133.5 -190.5t201 -115t251 -38.5q117 0 213 46t168 122.5t118.5 176.5t65 208t7.5 217.5t-55 204.5
l204 139q33 -28 77 -77t92 -109.5t97 -127.5t92 -129t76 -114.5t50 -85.5q5 8 18 36t30 66.5t36 83t36 85t30 72.5t18 46l184 115q11 -11 35 -42t54 -71.5t62.5 -87t61 -88.5t50 -76t28.5 -49q3 3 14.5 28t24.5 55.5t24.5 57.5t14.5 35h880z" />
    <glyph glyph-name="saraulowthai" unicode="&#xf718;" 
d="M-446 -1253v245q0 86 -82 86h-111l53 168h217q72 0 110 -47t38 -125v-327h-225z" />
    <glyph glyph-name="sarauulowthai" unicode="&#xf719;" 
d="M-221 -1016q0 -81 -24 -134t-73.5 -84t-125.5 -43.5t-179 -12.5q-97 0 -164.5 18t-110 46.5t-62 64.5t-19.5 71v86q0 95 -82 95h-106l69 159h197q35 0 60 -12.5t40.5 -35t23 -54t7.5 -70.5v-114q0 -47 38.5 -77t113.5 -30q151 0 151 131v262h246v-266z" />
    <glyph glyph-name="phinthulowthai" unicode="&#xf71a;" 
d="M-197 -913q0 -72 -42 -114t-113 -42t-113.5 42t-42.5 114q0 71 42.5 113t113.5 42t113 -42t42 -113z" />
    <glyph glyph-name="rulakkhangyao" unicode="&#xf881;" horiz-adv-x="2576" 
d="M2085 -528v1884q0 63 -16 106.5t-48 71t-79.5 39.5t-110.5 12q-48 0 -92.5 -11t-84.5 -29t-74 -41t-60 -46q15 -34 21.5 -75.5t6.5 -88.5v-1826h-254v1769q0 75 -22.5 139t-70 110.5t-120 72.5t-172.5 26q-94 0 -173.5 -28t-137.5 -76t-90.5 -112t-32.5 -136v-1077h197
v-156h-459v1004q0 66 4.5 117.5t18 96t39.5 85.5t69 86q-9 3 -20.5 8t-20.5 8q-22 9 -46 12.5t-52 3.5v111q28 23 74.5 48.5t105.5 49.5t127 45.5t140.5 38t146.5 26t143 9.5q78 0 151 -9t137.5 -29.5t119 -53t96.5 -80.5q38 31 88 61.5t109.5 55t127.5 40t142 15.5
q109 0 190.5 -29t135.5 -75.5t81 -106.5t27 -121v-1945h-262z" />
    <glyph glyph-name="lulakkhangyao" unicode="&#xf882;" horiz-adv-x="2613" 
d="M2122 -528v1884q0 63 -16 106.5t-48 71t-79.5 39.5t-110.5 12q-48 0 -92.5 -11t-84.5 -29t-74.5 -41t-60.5 -46q16 -34 22.5 -75.5t6.5 -88.5v-1826h-254v1769q0 75 -23 139t-70 110.5t-119.5 72.5t-172.5 26q-94 0 -173.5 -28t-137.5 -76t-90.5 -112t-32.5 -136v-1233
h-451v156h189v848q0 66 4.5 117.5t18 96t39.5 85.5t69 86q-9 3 -20.5 8t-20.5 8q-22 9 -46 12.5t-52 3.5v111q43 35 124 73.5t182.5 70.5t213.5 52.5t217 20.5q78 0 151 -9t137.5 -29.5t119 -53t96.5 -80.5q38 31 88 61.5t109.5 55t127.5 40t142 15.5q109 0 190.5 -29
t135.5 -75.5t81 -106.5t27 -121v-1945h-262z" />
    <glyph glyph-name="lochula.short" unicode="&#xf71d;" horiz-adv-x="2007" 
d="M1790 418q0 -103 -23.5 -188.5t-71.5 -146.5t-121 -94.5t-173 -33.5q-48 0 -109.5 15.5t-120 48.5t-104.5 86t-63 128q-22 -75 -61.5 -128t-88.5 -86t-104 -48.5t-107 -15.5q-111 0 -190 33t-129.5 94t-74.5 146t-24 190v1282h258v-1356q0 -42 10.5 -81t34.5 -69
t62.5 -48.5t93.5 -18.5t92.5 27t61 66t33.5 82t10 75v950h241v-954q0 -32 12 -74.5t38 -80.5t66 -64.5t97 -26.5q51 0 87.5 15.5t60 43.5t34.5 67t11 87v877q0 70 -22 120.5t-53 83.5t-65 51.5t-57 26.5v29q26 4 60 22t64.5 49.5t51.5 77t21 105.5v86h262v-90
q0 -54 -22.5 -98.5t-57.5 -79t-79 -59t-87 -38.5q43 -11 87 -37.5t79 -66.5t57.5 -91.5t22.5 -111.5v-778z" />
    <glyph glyph-name="uni25CC" unicode="&#x25cc;" horiz-adv-x="2744" 
d="M1061 733l-197 -61l70 192q28 -40 59 -71.5t68 -59.5zM1278 1692l94 184l90 -180q-21 3 -42.5 3.5t-43.5 0.5q-25 0 -49 -2.5t-49 -5.5zM1454 639l-82 -172l-86 172q22 -3 45.5 -5.5t44.5 -2.5q22 0 41 2.5t37 5.5zM1905 1257l172 -90l-172 -77q3 18 5.5 37t2.5 40
q0 22 -2.5 45.5t-5.5 44.5zM852 1081l-184 95l184 90q-3 -25 -5.5 -49.5t-2.5 -49.5q0 -21 2.5 -42.5t5.5 -43.5zM946 1487l-53 188l184 -65q-40 -25 -71.5 -55.5t-59.5 -67.5zM1802 840l49 -168l-168 53q35 25 64.5 53t54.5 62zM1679 1610l201 65l-70 -192q-27 37 -58.5 68
t-72.5 59z" />
    <glyph glyph-name="yamakkanleftthai" 
d="M-484 2679q-66 0 -107 -24.5t-63.5 -67.5t-30.5 -101.5t-8 -126.5q-132 0 -201 -75t-69 -207h-209q0 103 26 181t69 134.5t97 92.5t111 55q8 38 23.5 78.5t38.5 79t54 73t71 60.5t89.5 41.5t108.5 15.5v-209z" />
    <glyph glyph-name="copyright" unicode="&#xa9;" horiz-adv-x="2666" 
d="M2552 1188q0 -170 -44 -327t-123.5 -293.5t-191.5 -249t-248 -192t-292.5 -123.5t-325.5 -44q-168 0 -324 44t-291.5 123.5t-247 191.5t-191 248t-123.5 292.5t-44 325.5q0 168 44 324t123.5 292t191 248t247 192t291.5 124t324 44q169 0 325.5 -43.5t292.5 -123.5
t248 -191t191.5 -247t123.5 -291.5t44 -323.5zM2351 1184q0 143 -36.5 275t-102.5 246t-159.5 207.5t-207 160t-245 103t-273.5 36.5t-273 -36.5t-244.5 -102.5t-206 -159.5t-158.5 -207t-102 -245t-36 -273.5q0 -144 36 -275.5t102 -246t158.5 -208t206 -159.5
t244.5 -102.5t273 -36.5t273.5 36.5t245 102.5t207 159.5t159.5 208t102.5 246t36.5 275.5v-4zM1884 979q-18 -98 -65.5 -183t-119.5 -147t-166 -97.5t-206 -35.5q-141 0 -246.5 57t-175.5 150.5t-104.5 212.5t-34.5 244q0 84 16.5 166.5t49 157.5t80.5 139.5t112.5 111.5
t144 73.5t174.5 26.5q117 0 208.5 -32t158 -90.5t108 -140t58.5 -179.5l-180 -24q-8 63 -35.5 121.5t-73.5 104.5t-110.5 73.5t-145.5 27.5q-67 0 -119 -24.5t-91.5 -66t-67 -95.5t-45 -113.5t-25.5 -119.5t-8 -113q0 -52 8 -113t26 -121.5t46 -116.5t67.5 -99t91 -69
t117.5 -26q86 0 149.5 31t107 81t70 114t38.5 130z" />
    <glyph glyph-name="registered" unicode="&#xae;" horiz-adv-x="2036" 
d="M1815 1319q0 -110 -28.5 -211t-80.5 -189.5t-124.5 -161t-161 -124.5t-190 -80.5t-210.5 -28.5q-111 0 -213 28.5t-190.5 80.5t-161.5 124.5t-125 161t-80.5 189.5t-28.5 211t28.5 212.5t80.5 191t125 161.5t161.5 125t191 80.5t212.5 28.5q109 0 210.5 -28.5t190 -80.5
t161 -125t124.5 -161.5t80.5 -191t28.5 -212.5zM1696 1315q0 93 -24 179.5t-68.5 161.5t-106.5 137t-137.5 106t-162.5 68t-181 24q-140 0 -263 -53t-215 -145t-145 -215t-53 -263t53 -263t145 -215t215 -145t263 -53q94 0 181 24t162.5 68t137.5 106t106.5 137t68.5 161.5
t24 179.5zM1180 930l-131 323h-172v-323h-156v823h303q72 -5 134 -20.5t106.5 -48t67 -83.5t16.5 -126q-14 -138 -148 -193l148 -352h-168zM1192 1495q0 35 -12.5 58.5t-33.5 38t-49.5 20.5t-60.5 6h-159v-238h167q29 0 56 6t47.5 19.5t32.5 35.5t12 54z" />
    <glyph glyph-name="trademark" unicode="&#x2122;" horiz-adv-x="2814" 
d="M2433 938v1237l-422 -1237h-123l-446 1241v-1241h-185v1421h304l397 -1134l364 1134h295v-1421h-184zM692 2208v-1270h-184v1270h-406v151h996v-151h-406z" />
    <glyph glyph-name="multiply" unicode="&#xd7;" horiz-adv-x="2118" 
d="M1253 942l553 -561l-176 -176l-549 553l-589 -586q-47 37 -81 76t-71 80l590 577l-578 578l185 184l577 -573l578 577q14 -17 34 -36.5t41 -39t40.5 -39t31.5 -36.5z" />
    <glyph glyph-name="divide" unicode="&#xf7;" horiz-adv-x="2433" 
d="M1434 1413q0 -45 -17.5 -84.5t-47 -69t-69 -46.5t-83.5 -17q-45 0 -84.5 17t-69 46.5t-47 69t-17.5 84.5q0 43 17.5 81.5t47 68t69 46.5t84.5 17q44 0 83.5 -17t69 -46.5t47 -68t17.5 -81.5zM307 827v250h1819v-250h-1819zM1434 492q0 -43 -17.5 -81.5t-47 -68t-69 -46.5
t-83.5 -17q-45 0 -84.5 17t-69 46.5t-47 68t-17.5 81.5q0 44 17.5 83.5t47 69t69 47t84.5 17.5q44 0 83.5 -17.5t69 -47t47 -69t17.5 -83.5z" />
    <glyph glyph-name="ZWSP" unicode="&#x200b;" 
 />
    <glyph glyph-name="yoyingthai" unicode="&#xe0d;" horiz-adv-x="2613" 
d="M2392 111q0 -141 -46.5 -258t-137.5 -201t-225.5 -130t-311.5 -46q-66 0 -135.5 9.5t-134 26.5t-120 41.5t-93.5 53.5l74 155q35 -29 79.5 -54.5t96.5 -44t109.5 -29.5t119.5 -11q123 0 207.5 29t139 77.5t84 113t43 135.5t16 144.5t2.5 139.5q-25 -55 -76.5 -109.5
t-119.5 -97.5t-147 -69.5t-157 -26.5q-112 0 -198.5 30.5t-145 87.5t-89 139t-30.5 185v824q0 75 -16.5 138.5t-56 110t-105.5 73t-166 26.5q-97 0 -168 -28t-117.5 -76t-69 -112t-22.5 -136v-1065h197v-156h-459v991q0 66 4.5 117.5t18 96t39.5 85.5t69 86q-9 3 -20.5 8.5
t-20.5 8.5q-22 9 -46 12.5t-52 3.5v111q43 35 114.5 73.5t162 70.5t194 52.5t209.5 20.5q121 0 224.5 -25t179 -79.5t118.5 -141t43 -209.5v-823q0 -160 71.5 -233.5t219.5 -73.5q54 0 104 18t93.5 49t78.5 72t60.5 87t39 94t13.5 93v1135h262v-1589z" />
    <glyph glyph-name="sterling" unicode="&#xa3;" horiz-adv-x="2023" 
d="M1540 1667v16q0 109 -34.5 201.5t-97 159.5t-150 105t-193.5 38q-94 0 -167.5 -22.5t-128.5 -59t-93 -83t-62 -95t-34.5 -94t-10.5 -80.5q0 -51 12 -104t35.5 -112t57 -126t76.5 -145h557v-189h-467q7 -29 13 -56t10.5 -54.5t6.5 -57.5t2 -65q0 -66 -19 -141
t-58.5 -152.5t-101.5 -153.5t-148 -143h1188v-254h-1536v254h135q92 78 148.5 162t87 161t40.5 141.5t10 104.5q0 32 -6.5 67.5t-17 69t-22.5 64t-23 53.5h-352v189h237q-26 55 -53 111t-48.5 114t-35.5 119t-14 127q0 67 16 143t53.5 151t99 143t152.5 120t214 83t284 31
q124 0 224.5 -28.5t179 -78t136 -116.5t95 -145.5t55.5 -164t18 -171.5v-37h-270z" />
    <glyph glyph-name="yen" unicode="&#xa5;" horiz-adv-x="2089" 
d="M1495 1405h504v-225h-639l-160 -267h799v-225h-799v-696h-295v696h-815v225h815l-160 267h-655v225h520l-577 954h336l708 -1167l709 1167h282z" />
    <glyph glyph-name="cent" unicode="&#xa2;" horiz-adv-x="1679" 
d="M1454 954q-17 -98 -60.5 -183t-110.5 -150.5t-155 -108.5t-194 -57v-275h-164v275q-90 11 -164.5 45t-133.5 85.5t-103 117.5t-73 142.5t-43.5 160.5t-14.5 170q0 129 33.5 251.5t100.5 222t166.5 167.5t231.5 88v278h164v-274q112 -11 200.5 -49.5t153 -101t105 -145.5
t57.5 -183l-201 -29q-6 61 -29 119.5t-62.5 106t-95.5 81t-128 45.5v-1159q72 14 125.5 52t92 90.5t62 114.5t35.5 124zM770 1749q-57 -13 -102 -45.5t-79 -78t-58 -101t-39 -114t-22 -118t-7 -112.5q0 -50 7 -108t22.5 -117.5t39.5 -116.5t58.5 -104.5t79 -83.5t100.5 -52
v1151z" />
    <glyph glyph-name="Euro" unicode="&#x20ac;" horiz-adv-x="2482" 
d="M2327 737q-25 -172 -98.5 -313.5t-192 -243t-279.5 -157.5t-360 -56q-135 0 -251.5 32t-213.5 89t-176 136.5t-139.5 174.5t-103 203t-67.5 221h-356v226h324q-3 34 -3.5 67.5t-0.5 67.5t0.5 65.5t3.5 65.5h-324v225h356q37 180 115.5 336t200 271.5t288 182t380.5 66.5
q196 0 355.5 -63.5t278.5 -173.5q109 -103 175 -231t88 -286l-291 -53q-11 77 -37 151t-66 140.5t-93 122.5t-118 97t-141.5 64t-163.5 23q-147 0 -257.5 -55t-188.5 -145.5t-127 -207t-74 -239.5h770v-225h-803q-3 -34 -3.5 -67.5t-0.5 -67.5t0.5 -65.5t3.5 -65.5h803v-226
h-770q19 -87 48.5 -169t69.5 -154.5t91.5 -132.5t116 -103.5t141.5 -67.5t168 -24q135 0 245.5 51t192 137.5t133 199t68.5 235.5z" />
    <glyph glyph-name="onequarter" unicode="&#xbc;" horiz-adv-x="2519" 
d="M2281 295v-291h-225v291h-639v147l611 885h253v-844h218v-188h-218zM844 0h-266l1208 2359h266zM135 1040v181h258v807q-31 -23 -62 -41t-66.5 -33.5t-78 -30t-96.5 -31.5v205q60 25 109 50.5t92 56.5t82.5 69.5t81.5 89.5h168v-1142h254v-181h-742zM2056 1049l-377 -566
h377v566z" />
    <glyph glyph-name="onehalf" unicode="&#xbd;" horiz-adv-x="2519" 
d="M2490 905q0 -84 -21 -152t-57 -125t-85.5 -105t-106.5 -93l-303 -246h561v-184h-913v147l487 394q45 37 81 75.5t62 82t40 94t14 112.5q0 57 -16.5 107t-46.5 87.5t-73.5 59t-97.5 21.5q-57 0 -101 -22t-76.5 -63.5t-54.5 -100t-34 -130.5l-225 58q29 100 73 178t105 132
t138.5 82.5t174.5 28.5q106 0 193.5 -35.5t150 -95.5t97 -139.5t34.5 -167.5zM791 0h-267l1209 2359h266zM156 1040v181h258v807q-31 -23 -62 -41t-66.5 -33.5t-78 -30t-96.5 -31.5v205q60 25 108.5 50.5t91.5 56.5t83 69.5t81 89.5h168v-1142h254v-181h-741z" />
    <glyph glyph-name="threequarters" unicode="&#xbe;" horiz-adv-x="2519" 
d="M2277 295v-291h-225v291h-639v147l610 885h254v-844h217v-188h-217zM901 0h-266l1208 2359h266zM1040 1405q0 -69 -28.5 -136.5t-89.5 -121t-156.5 -86.5t-228.5 -33q-85 0 -162.5 20t-143 62.5t-115.5 109t-79 160.5l217 70q28 -132 105.5 -197t185.5 -65q66 0 115 18
t82 48t49 70t16 85q0 54 -22 95.5t-58 70.5t-82.5 44t-95.5 15h-205v189h213q107 0 156 55t49 150q0 43 -15 77.5t-42 59t-65.5 38t-86.5 13.5q-43 0 -83.5 -13t-74.5 -40.5t-60 -71t-40 -104.5l-221 57q29 94 77.5 158.5t111 105t136.5 58.5t154 18q92 0 172 -24.5
t139 -71.5t93 -115t34 -154q0 -99 -45 -172.5t-123 -113.5q45 -19 84.5 -50t69 -73t46.5 -93.5t17 -111.5zM2052 1049l-377 -566h377v566z" />
    <glyph glyph-name="saraamleft" horiz-adv-x="1167" 
d="M-590 2273q0 -66 -27 -121t-73.5 -94.5t-108.5 -61.5t-131 -22q-72 0 -135 22t-109.5 61.5t-73 94.5t-26.5 121t29 119.5t77 92t110 59t128 20.5t127.5 -20.5t108.5 -59t75.5 -92t28.5 -119.5zM684 0v1352q0 63 -16 106.5t-48 71t-79.5 39.5t-110.5 12q-48 0 -92.5 -12.5
t-82.5 -30.5t-68 -37t-48 -31l-98 99q38 31 88 62t110 56.5t129 41.5t144 16q109 0 190.5 -29t135.5 -75.5t81 -106.5t27 -121v-1413h-262zM-766 2273q0 62 -44.5 101t-119.5 39q-35 0 -66 -10.5t-53.5 -29t-35.5 -44t-13 -56.5q0 -32 13 -58.5t35.5 -45.5t53.5 -29t66 -10
t65 10t52 29t34.5 45.5t12.5 58.5z" />
    <glyph glyph-name="uni0E33.alt1" horiz-adv-x="1167" 
d="M-590 2273q0 -66 -27 -121t-73.5 -94.5t-108.5 -61.5t-131 -22q-72 0 -135 22t-109.5 61.5t-73 94.5t-26.5 121t29 119.5t77 92t110 59t128 20.5t127.5 -20.5t108.5 -59t75.5 -92t28.5 -119.5zM684 0v1352q0 63 -16 106.5t-48 71t-79.5 39.5t-110.5 12q-48 0 -92.5 -12.5
t-82.5 -30.5t-68 -37t-48 -31l-98 99q38 31 88 62t110 56.5t129 41.5t144 16q109 0 190.5 -29t135.5 -75.5t81 -106.5t27 -121v-1413h-262zM-766 2273q0 62 -44.5 101t-119.5 39q-35 0 -66 -10.5t-53.5 -29t-35.5 -44t-13 -56.5q0 -32 13 -58.5t35.5 -45.5t53.5 -29t66 -10
t65 10t52 29t34.5 45.5t12.5 58.5z" />
    <glyph glyph-name="guillemotleft" unicode="&#xab;" horiz-adv-x="1827" 
d="M864 1004v241l750 488v-160l-565 -447l565 -479v-172zM168 1004v241l750 488v-160l-566 -447l566 -479v-172z" />
    <glyph glyph-name="guillemotright" unicode="&#xbb;" horiz-adv-x="1827" 
d="M905 475v172l570 479l-570 447v160l750 -488v-241zM213 475v172l569 479l-569 447v160l750 -488v-241z" />
    <glyph glyph-name="angkhankhuthai" unicode="&#xe5a;" horiz-adv-x="2359" 
d="M1876 0v1729h262v-1729h-262zM1257 0v1012q-48 -56 -102.5 -103t-119 -81.5t-141.5 -54t-169 -19.5q-101 0 -199 34.5t-177 98.5t-132 153.5t-65 200.5q-5 57 7.5 117t40.5 116.5t71.5 106.5t99.5 87.5t124.5 59t147.5 21.5q51 0 100 -7t92.5 -19.5t80.5 -29t63 -34.5
l-53 -143q-60 25 -120.5 33t-117 -0.5t-106 -33t-86 -63t-57.5 -90.5t-21 -117q0 -68 33 -123t85.5 -94t117.5 -60.5t128 -21.5q105 0 192 35t150 93.5t98 134.5t35 159v361h263v-1729h-263z" />
    <glyph glyph-name="maiekupperleftthai.alt9" 
d="M-1054 2716v372h262v-372h-262z" />
    <glyph glyph-name="maichattawaupperleftthai.alt9" 
d="M-804 2863v-164h-242v164h-221v152h221v168h242v-168h225v-152h-225z" />
    <glyph glyph-name="saraileftthai" 
d="M-1700 2093l78 172h950v-172h-1028z" />
    <glyph glyph-name="saraileftthai" unicode="&#xf701;" 
d="M-1700 2093l78 172h950v-172h-1028z" />
    <glyph glyph-name="saraiileftthai" 
d="M-1700 2093l78 172h688v250h262v-422h-1028z" />
    <glyph glyph-name="saraiileftthai" unicode="&#xf702;" 
d="M-1700 2093l78 172h688v250h262v-422h-1028z" />
    <glyph glyph-name="saraueleftthai" 
d="M-618 2310q0 -217 -287 -217h-795l78 172h385q-14 67 5.5 123t64.5 96t111.5 62t146.5 22q69 0 123 -20t91.5 -55t57 -82t19.5 -101zM-791 2314q0 115 -139 115q-29 0 -55 -8t-45.5 -23t-31 -36.5t-11.5 -47.5q0 -29 11.5 -50t31 -34.5t45.5 -19.5t55 -6q62 0 100.5 25.5
t38.5 84.5z" />
    <glyph glyph-name="saraueleftthai" unicode="&#xf703;" 
d="M-618 2310q0 -217 -287 -217h-795l78 172h385q-14 67 5.5 123t64.5 96t111.5 62t146.5 22q69 0 123 -20t91.5 -55t57 -82t19.5 -101zM-791 2314q0 115 -139 115q-29 0 -55 -8t-45.5 -23t-31 -36.5t-11.5 -47.5q0 -29 11.5 -50t31 -34.5t45.5 -19.5t55 -6q62 0 100.5 25.5
t38.5 84.5z" />
    <glyph glyph-name="saraueeleftthai" 
d="M-1700 2093l78 172h483v254h90q34 0 46.5 -18.5t15.5 -42.5l12 -115q1 -17 5 -31t12.5 -24.5t23 -16.5t37.5 -6q40 0 53.5 22t16.5 56l12 115q3 24 15 42.5t46 18.5h82v-426h-1028z" />
    <glyph glyph-name="saraueeleftthai" unicode="&#xf704;" 
d="M-1700 2093l78 172h483v254h90q34 0 46.5 -18.5t15.5 -42.5l12 -115q1 -17 5 -31t12.5 -24.5t23 -16.5t37.5 -6q40 0 53.5 22t16.5 56l12 115q3 24 15 42.5t46 18.5h82v-426h-1028z" />
    <glyph glyph-name="maieklowleftthai" 
d="M-922 2044v536h246v-536h-246z" />
    <glyph glyph-name="maieklowleftthai" unicode="&#xf705;" 
d="M-922 2044v536h246v-536h-246z" />
    <glyph glyph-name="maitholowleftthai" 
d="M-594 2220q-71 -54 -168.5 -92t-212.5 -58.5t-241.5 -23.5t-253.5 14v37q34 26 51.5 66t13 79.5t-33.5 72t-89 44.5l58 164q87 21 157.5 2.5t110.5 -65.5t43 -116t-45 -149q70 -5 151 10.5t159 47t148 77.5t119 103z" />
    <glyph glyph-name="maitholowleftthai" unicode="&#xf706;" 
d="M-594 2220q-71 -54 -168.5 -92t-212.5 -58.5t-241.5 -23.5t-253.5 14v37q34 26 51.5 66t13 79.5t-33.5 72t-89 44.5l58 164q87 21 157.5 2.5t110.5 -65.5t43 -116t-45 -149q70 -5 151 10.5t159 47t148 77.5t119 103z" />
    <glyph glyph-name="maitrilowleftthai" 
d="M-578 2376q-11 -92 -51.5 -159.5t-104 -108t-145.5 -53t-174 4.5q28 31 41 64t13 67q0 19 -7 37.5t-20.5 33.5t-33.5 24.5t-46 11.5q-46 0 -76.5 -19t-46.5 -47q-8 14 -19 27.5t-26.5 23.5t-35 14.5t-42.5 0.5q-29 -5 -46 -17.5t-26 -28t-11.5 -32.5t-2.5 -29
q0 -40 11 -70.5t26 -52.5h-135q-8 6 -21.5 20t-27 37.5t-23.5 57.5t-10 82q0 42 14 76.5t39.5 61t61 42.5t78.5 21q58 3 92 -10.5t59 -34.5q13 -13 24.5 -27.5t20.5 -30.5q6 16 16 28.5t25 25.5q22 21 61.5 36.5t98.5 12.5q45 0 84 -24t62 -65t26 -94.5t-25 -111.5
q45 17 74 36.5t46.5 49t24.5 72.5t7 108z" />
    <glyph glyph-name="maitrilowleftthai" unicode="&#xf707;" 
d="M-578 2376q-11 -92 -51.5 -159.5t-104 -108t-145.5 -53t-174 4.5q28 31 41 64t13 67q0 19 -7 37.5t-20.5 33.5t-33.5 24.5t-46 11.5q-46 0 -76.5 -19t-46.5 -47q-8 14 -19 27.5t-26.5 23.5t-35 14.5t-42.5 0.5q-29 -5 -46 -17.5t-26 -28t-11.5 -32.5t-2.5 -29
q0 -40 11 -70.5t26 -52.5h-135q-8 6 -21.5 20t-27 37.5t-23.5 57.5t-10 82q0 42 14 76.5t39.5 61t61 42.5t78.5 21q58 3 92 -10.5t59 -34.5q13 -13 24.5 -27.5t20.5 -30.5q6 16 16 28.5t25 25.5q22 21 61.5 36.5t98.5 12.5q45 0 84 -24t62 -65t26 -94.5t-25 -111.5
q45 17 74 36.5t46.5 49t24.5 72.5t7 108z" />
    <glyph glyph-name="maichattawalowleftthai" 
d="M-872 2257v-242h-218v242h-225v151h225v242h218v-242h225v-151h-225z" />
    <glyph glyph-name="maichattawalowleftthai" unicode="&#xf708;" 
d="M-872 2257v-242h-218v242h-225v151h225v242h218v-242h225v-151h-225z" />
    <glyph glyph-name="thanthakhatlowleftthai" 
d="M-610 2384q-102 -17 -157.5 -52.5t-79.5 -79t-22.5 -89t13.5 -82.5h-246q-8 46 -8 93.5t15 92.5t48.5 85t90.5 70.5t142 49.5t204 22v-110z" />
    <glyph glyph-name="thanthakhatlowleftthai" unicode="&#xf709;" 
d="M-610 2384q-102 -17 -157.5 -52.5t-79.5 -79t-22.5 -89t13.5 -82.5h-246q-8 46 -8 93.5t15 92.5t48.5 85t90.5 70.5t142 49.5t204 22v-110z" />
    <glyph glyph-name="maieklowrightthai" 
d="M-471 2044v536h246v-536h-246z" />
    <glyph glyph-name="maieklowrightthai" unicode="&#xf70a;" 
d="M-471 2044v536h246v-536h-246z" />
    <glyph glyph-name="maitholowrightthai" 
d="M-98 2257q-92 -60 -199.5 -100.5t-224.5 -62t-242 -25.5t-252 8v41q34 26 51.5 65.5t13.5 79t-33 72.5t-89 45l57 164q58 14 109.5 10t91.5 -22.5t67 -50t37.5 -73t1.5 -90.5t-41 -102q111 6 203 29.5t169.5 60t141 83.5t117.5 101z" />
    <glyph glyph-name="maitholowrightthai" unicode="&#xf70b;" 
d="M-98 2257q-92 -60 -199.5 -100.5t-224.5 -62t-242 -25.5t-252 8v41q34 26 51.5 65.5t13.5 79t-33 72.5t-89 45l57 164q58 14 109.5 10t91.5 -22.5t67 -50t37.5 -73t1.5 -90.5t-41 -102q111 6 203 29.5t169.5 60t141 83.5t117.5 101z" />
    <glyph glyph-name="maitrilowrightthai" 
d="M37 2462q-5 -119 -56 -200.5t-132 -128t-183.5 -58t-210.5 9.5q62 68 62 147q0 23 -7.5 44.5t-23 38.5t-38.5 27.5t-54 12.5q-50 0 -84 -19.5t-55 -54.5q-11 17 -25 32.5t-31.5 26t-39.5 15t-48 0.5q-32 -5 -51.5 -19.5t-30 -33t-13.5 -37.5t-3 -33q0 -46 11.5 -80
t33.5 -59h-156q-11 6 -27 21t-31 42t-25.5 67t-10.5 95q0 48 16 88t45.5 70t70 48.5t89.5 23.5q64 3 106.5 -16.5t69.5 -41.5q16 -15 28 -30.5t22 -30.5q9 15 21 30.5t28 30.5q14 11 31.5 22t40 19.5t49.5 13t59 3.5q54 -5 101 -33.5t75 -74.5t30.5 -106.5t-34.5 -129.5
q57 6 95.5 32t62 67.5t33.5 97.5t10 122z" />
    <glyph glyph-name="maitrilowrightthai" unicode="&#xf70c;" 
d="M37 2462q-5 -119 -56 -200.5t-132 -128t-183.5 -58t-210.5 9.5q62 68 62 147q0 23 -7.5 44.5t-23 38.5t-38.5 27.5t-54 12.5q-50 0 -84 -19.5t-55 -54.5q-11 17 -25 32.5t-31.5 26t-39.5 15t-48 0.5q-32 -5 -51.5 -19.5t-30 -33t-13.5 -37.5t-3 -33q0 -46 11.5 -80
t33.5 -59h-156q-11 6 -27 21t-31 42t-25.5 67t-10.5 95q0 48 16 88t45.5 70t70 48.5t89.5 23.5q64 3 106.5 -16.5t69.5 -41.5q16 -15 28 -30.5t22 -30.5q9 15 21 30.5t28 30.5q14 11 31.5 22t40 19.5t49.5 13t59 3.5q54 -5 101 -33.5t75 -74.5t30.5 -106.5t-34.5 -129.5
q57 6 95.5 32t62 67.5t33.5 97.5t10 122z" />
    <glyph glyph-name="maichattawalowrightthai" 
d="M-229 2253v-213h-234v213h-221v160h221v213h234v-213h225v-160h-225z" />
    <glyph glyph-name="maichattawalowrightthai" unicode="&#xf70d;" 
d="M-229 2253v-213h-234v213h-221v160h221v213h234v-213h225v-160h-225z" />
    <glyph glyph-name="thanthakhatlowrightthai" 
d="M16 2384q-101 -17 -156.5 -52.5t-79.5 -79t-22.5 -89t13.5 -82.5h-246q-8 46 -8 93.5t15 92.5t48 85t90.5 70.5t142 49.5t203.5 22v-110z" />
    <glyph glyph-name="thanthakhatlowrightthai" unicode="&#xf70e;" 
d="M16 2384q-101 -17 -156.5 -52.5t-79.5 -79t-22.5 -89t13.5 -82.5h-246q-8 46 -8 93.5t15 92.5t48 85t90.5 70.5t142 49.5t203.5 22v-110z" />
    <glyph glyph-name="maihanakatleftthai" 
d="M-897 2089q-51 0 -111.5 10.5t-117.5 32.5t-104.5 57t-72.5 84l209 144q38 -72 133 -110t228 -38l745 4v-172z" />
    <glyph glyph-name="maihanakatleftthai" unicode="&#xf710;" 
d="M-897 2089q-51 0 -111.5 10.5t-117.5 32.5t-104.5 57t-72.5 84l209 144q38 -72 133 -110t228 -38l745 4v-172z" />
    <glyph glyph-name="nikhahitleftthai" 
d="M-639 2273q0 -66 -27.5 -121t-74 -94.5t-108 -61.5t-130.5 -22q-72 0 -135 22t-109.5 61.5t-73 94.5t-26.5 121t29 119.5t77 92t110 59t128 20.5t127.5 -20.5t108.5 -59t75.5 -92t28.5 -119.5zM-815 2273q0 62 -45 101t-119 39q-35 0 -66 -10.5t-53.5 -29t-35.5 -44
t-13 -56.5q0 -32 13 -58.5t35.5 -45.5t53.5 -29t66 -10t65 10t52 29t34.5 45.5t12.5 58.5z" />
    <glyph glyph-name="nikhahitleftthai" unicode="&#xf711;" 
d="M-639 2273q0 -66 -27.5 -121t-74 -94.5t-108 -61.5t-130.5 -22q-72 0 -135 22t-109.5 61.5t-73 94.5t-26.5 121t29 119.5t77 92t110 59t128 20.5t127.5 -20.5t108.5 -59t75.5 -92t28.5 -119.5zM-815 2273q0 62 -45 101t-119 39q-35 0 -66 -10.5t-53.5 -29t-35.5 -44
t-13 -56.5q0 -32 13 -58.5t35.5 -45.5t53.5 -29t66 -10t65 10t52 29t34.5 45.5t12.5 58.5z" />
    <glyph glyph-name="maitaikhuleftthai" 
d="M-631 2224q1 -41 -13.5 -79t-42 -67t-66.5 -46t-87 -17q-17 0 -39.5 2.5t-46.5 7.5t-46.5 12.5t-39.5 18.5l-155 98l-160 -98q-22 -9 -52.5 -23t-58.5 -14q-63 0 -113.5 25.5t-86.5 69t-55 99.5t-19 118q0 60 18.5 112.5t52.5 92t82.5 62.5t108.5 23h803v-127h-680
q-35 0 -65 -10t-52 -30.5t-34.5 -51t-12.5 -71.5q0 -43 9.5 -73t23.5 -49.5t30.5 -30.5t30.5 -15l234 127l155 -90q34 -22 66.5 -28t60.5 3q34 9 59.5 33.5t35.5 77.5z" />
    <glyph glyph-name="maitaikhuleftthai" unicode="&#xf712;" 
d="M-631 2224q1 -41 -13.5 -79t-42 -67t-66.5 -46t-87 -17q-17 0 -39.5 2.5t-46.5 7.5t-46.5 12.5t-39.5 18.5l-155 98l-160 -98q-22 -9 -52.5 -23t-58.5 -14q-63 0 -113.5 25.5t-86.5 69t-55 99.5t-19 118q0 60 18.5 112.5t52.5 92t82.5 62.5t108.5 23h803v-127h-680
q-35 0 -65 -10t-52 -30.5t-34.5 -51t-12.5 -71.5q0 -43 9.5 -73t23.5 -49.5t30.5 -30.5t30.5 -15l234 127l155 -90q34 -22 66.5 -28t60.5 3q34 9 59.5 33.5t35.5 77.5z" />
    <glyph glyph-name="maiekupperleftthai" 
d="M-934 2716v372h262v-372h-262z" />
    <glyph glyph-name="maiekupperleftthai" unicode="&#xf713;" 
d="M-934 2716v372h262v-372h-262z" />
    <glyph glyph-name="maithoupperleftthai" 
d="M-164 2896q-81 -54 -187 -93.5t-225.5 -62.5t-248.5 -29.5t-256 5.5v37q34 26 51.5 65.5t13 79t-33.5 72.5t-89 45l58 163q58 14 109.5 10.5t91.5 -22t67 -50.5t37 -73t1.5 -90t-40.5 -102q41 0 95.5 8t115.5 23.5t124 37t122 48.5t109 58t85 66v-196z" />
    <glyph glyph-name="maithoupperleftthai" unicode="&#xf714;" 
d="M-164 2896q-81 -54 -187 -93.5t-225.5 -62.5t-248.5 -29.5t-256 5.5v37q34 26 51.5 65.5t13 79t-33.5 72.5t-89 45l58 163q58 14 109.5 10.5t91.5 -22t67 -50.5t37 -73t1.5 -90t-40.5 -102q41 0 95.5 8t115.5 23.5t124 37t122 48.5t109 58t85 66v-196z" />
    <glyph glyph-name="maitriupperleftthai" 
d="M-184 3027q-11 -92 -52 -159.5t-104.5 -107.5t-145 -52.5t-173.5 4.5q27 31 40 64t13 67q0 18 -7 36.5t-20.5 33.5t-33.5 24.5t-46 11.5q-46 0 -76.5 -19t-46.5 -46q-8 13 -19 27t-26.5 23.5t-34.5 14t-42 0.5q-29 -5 -46 -17.5t-26 -28t-11.5 -32t-2.5 -28.5
q0 -41 10.5 -71.5t25.5 -51.5h-135q-8 6 -21.5 19.5t-27 37t-23.5 57.5t-10 82q0 42 14 76.5t39.5 61t61 42.5t78.5 21q59 3 93 -10t58 -35q13 -12 24.5 -27t20.5 -30q7 15 16.5 28t24.5 25q22 22 61.5 37t98.5 12q45 0 84 -24t62 -65t26 -94.5t-24 -111.5q44 17 73 36.5
t46.5 49t24.5 72.5t7 108z" />
    <glyph glyph-name="maitriupperleftthai" unicode="&#xf715;" 
d="M-184 3027q-11 -92 -52 -159.5t-104.5 -107.5t-145 -52.5t-173.5 4.5q27 31 40 64t13 67q0 18 -7 36.5t-20.5 33.5t-33.5 24.5t-46 11.5q-46 0 -76.5 -19t-46.5 -46q-8 13 -19 27t-26.5 23.5t-34.5 14t-42 0.5q-29 -5 -46 -17.5t-26 -28t-11.5 -32t-2.5 -28.5
q0 -41 10.5 -71.5t25.5 -51.5h-135q-8 6 -21.5 19.5t-27 37t-23.5 57.5t-10 82q0 42 14 76.5t39.5 61t61 42.5t78.5 21q59 3 93 -10t58 -35q13 -12 24.5 -27t20.5 -30q7 15 16.5 28t24.5 25q22 22 61.5 37t98.5 12q45 0 84 -24t62 -65t26 -94.5t-24 -111.5q44 17 73 36.5
t46.5 49t24.5 72.5t7 108z" />
    <glyph glyph-name="maichattawaupperleftthai" 
d="M-684 2863v-164h-242v164h-221v152h221v168h242v-168h225v-152h-225z" />
    <glyph glyph-name="maichattawaupperleftthai" unicode="&#xf716;" 
d="M-684 2863v-164h-242v164h-221v152h221v168h242v-168h225v-152h-225z" />
    <glyph glyph-name="thanthakhatupperleftthai" 
d="M-426 2765q-84 0 -135 -28t-77 -71.5t-32.5 -97.5t-1.5 -106h-246q0 56 5 108.5t22 98.5t49.5 84t87.5 65t135 42t193 15v-110z" />
    <glyph glyph-name="thanthakhatupperleftthai" unicode="&#xf717;" 
d="M-426 2765q-84 0 -135 -28t-77 -71.5t-32.5 -97.5t-1.5 -106h-246q0 56 5 108.5t22 98.5t49.5 84t87.5 65t135 42t193 15v-110z" />
    <glyph glyph-name="maithoupperleftthai.alt9" 
d="M-314 2896q-81 -54 -187 -93.5t-225.5 -62.5t-248.5 -29.5t-256 5.5v37q34 26 51.5 65.5t13 79t-33.5 72.5t-89 45l58 163q58 14 109.5 10.5t91.5 -22t67 -50.5t37 -73t1.5 -90t-40.5 -102q41 0 95.5 8t115.5 23.5t124 37t122 48.5t109 58t85 66v-196z" />
    <glyph glyph-name="maitriupperleftthai.alt9" 
d="M-284 3027q-11 -92 -52 -159.5t-104.5 -107.5t-145 -52.5t-173.5 4.5q27 31 40 64t13 67q0 18 -7 36.5t-20.5 33.5t-33.5 24.5t-46 11.5q-46 0 -76.5 -19t-46.5 -46q-8 13 -19 27t-26.5 23.5t-34.5 14t-42 0.5q-29 -5 -46 -17.5t-26 -28t-11.5 -32t-2.5 -28.5
q0 -41 10.5 -71.5t25.5 -51.5h-135q-8 6 -21.5 19.5t-27 37t-23.5 57.5t-10 82q0 42 14 76.5t39.5 61t61 42.5t78.5 21q59 3 93 -10t58 -35q13 -12 24.5 -27t20.5 -30q7 15 16.5 28t24.5 25q22 22 61.5 37t98.5 12q45 0 84 -24t62 -65t26 -94.5t-24 -111.5q44 17 73 36.5
t46.5 49t24.5 72.5t7 108z" />
    </font>
</defs>
</svg>
